  0
SECTION
  2
HEADER
  9
$ACADVER
  1
AC1015
  9
$ACADMAINTVER
 70
    20
  9
$DWGCODEPAGE
  3
ANSI_1252
  9
$INSBASE
 10
0.0
 20
0.0
 30
0.0
  9
$EXTMIN
 10
-0.0324607805773667
 20
-0.0245964087666835
 30
-0.0000000000000058
  9
$EXTMAX
 10
297.0102320689684
 20
210.0303155312674
 30
0.0000000000000104
  9
$LIMMIN
 10
0.0000011707487033
 20
0.0000000000000284
  9
$LIMMAX
 10
297.0000011707487
 20
210.000000569727
  9
$ORTHOMODE
 70
     0
  9
$REGENMODE
 70
     1
  9
$FILLMODE
 70
     1
  9
$QTEXTMODE
 70
     0
  9
$MIRRTEXT
 70
     0
  9
$LTSCALE
 40
10.0
  9
$ATTMODE
 70
     1
  9
$TEXTSIZE
 40
2.5
  9
$TRACEWID
 40
1.0
  9
$TEXTSTYLE
  7
RomanS
  9
$CLAYER
  8
Schraffur
  9
$CELTYPE
  6
ByLayer
  9
$CECOLOR
 62
     5
  9
$CELTSCALE
 40
1.0
  9
$DISPSILH
 70
     0
  9
$DIMSCALE
 40
1.0
  9
$DIMASZ
 40
2.5
  9
$DIMEXO
 40
0.625
  9
$DIMDLI
 40
3.75
  9
$DIMRND
 40
0.0
  9
$DIMDLE
 40
0.0
  9
$DIMEXE
 40
1.25
  9
$DIMTP
 40
0.0
  9
$DIMTM
 40
0.0
  9
$DIMTXT
 40
2.5
  9
$DIMCEN
 40
2.5
  9
$DIMTSZ
 40
0.0
  9
$DIMTOL
 70
     0
  9
$DIMLIM
 70
     0
  9
$DIMTIH
 70
     0
  9
$DIMTOH
 70
     0
  9
$DIMSE1
 70
     0
  9
$DIMSE2
 70
     0
  9
$DIMTAD
 70
     1
  9
$DIMZIN
 70
     8
  9
$DIMBLK
  1
Oblique
  9
$DIMASO
 70
     1
  9
$DIMSHO
 70
     1
  9
$DIMPOST
  1

  9
$DIMAPOST
  1

  9
$DIMALT
 70
     0
  9
$DIMALTD
 70
     3
  9
$DIMALTF
 40
0.03937007874016
  9
$DIMLFAC
 40
1.0
  9
$DIMTOFL
 70
     1
  9
$DIMTVP
 40
0.0
  9
$DIMTIX
 70
     0
  9
$DIMSOXD
 70
     0
  9
$DIMSAH
 70
     0
  9
$DIMBLK1
  1

  9
$DIMBLK2
  1

  9
$DIMSTYLE
  2
IDEAL Holz
  9
$DIMCLRD
 70
     0
  9
$DIMCLRE
 70
     0
  9
$DIMCLRT
 70
     0
  9
$DIMTFAC
 40
1.0
  9
$DIMGAP
 40
0.625
  9
$DIMJUST
 70
     0
  9
$DIMSD1
 70
     0
  9
$DIMSD2
 70
     0
  9
$DIMTOLJ
 70
     0
  9
$DIMTZIN
 70
     8
  9
$DIMALTZ
 70
     0
  9
$DIMALTTZ
 70
     0
  9
$DIMUPT
 70
     0
  9
$DIMDEC
 70
     1
  9
$DIMTDEC
 70
     1
  9
$DIMALTU
 70
     2
  9
$DIMALTTD
 70
     3
  9
$DIMTXSTY
  7
RomanS
  9
$DIMAUNIT
 70
     0
  9
$DIMADEC
 70
     0
  9
$DIMALTRND
 40
0.0
  9
$DIMAZIN
 70
     0
  9
$DIMDSEP
 70
    44
  9
$DIMATFIT
 70
     3
  9
$DIMFRAC
 70
     0
  9
$DIMLDRBLK
  1
Oblique
  9
$DIMLUNIT
 70
     2
  9
$DIMLWD
 70
    -2
  9
$DIMLWE
 70
    -2
  9
$DIMTMOVE
 70
     0
  9
$LUNITS
 70
     2
  9
$LUPREC
 70
     4
  9
$SKETCHINC
 40
1.0
  9
$FILLETRAD
 40
0.0
  9
$AUNITS
 70
     0
  9
$AUPREC
 70
     0
  9
$MENU
  1
.
  9
$ELEVATION
 40
0.0
  9
$PELEVATION
 40
0.0
  9
$THICKNESS
 40
0.0
  9
$LIMCHECK
 70
     0
  9
$CHAMFERA
 40
0.0
  9
$CHAMFERB
 40
0.0
  9
$CHAMFERC
 40
0.0
  9
$CHAMFERD
 40
0.0
  9
$SKPOLY
 70
     0
  9
$TDCREATE
 40
2454531.576644907
  9
$TDUCREATE
 40
2454531.534978241
  9
$TDUPDATE
 40
2456632.391920648
  9
$TDUUPDATE
 40
2456632.350253982
  9
$TDINDWG
 40
0.0204389120
  9
$TDUSRTIMER
 40
0.0204363310
  9
$USRTIMER
 70
     1
  9
$ANGBASE
 50
0.0
  9
$ANGDIR
 70
     0
  9
$PDMODE
 70
     0
  9
$PDSIZE
 40
0.0
  9
$PLINEWID
 40
0.0
  9
$SPLFRAME
 70
     0
  9
$SPLINETYPE
 70
     6
  9
$SPLINESEGS
 70
     8
  9
$HANDSEED
  5
28E3
  9
$SURFTAB1
 70
     6
  9
$SURFTAB2
 70
     6
  9
$SURFTYPE
 70
     6
  9
$SURFU
 70
     6
  9
$SURFV
 70
     6
  9
$UCSBASE
  2

  9
$UCSNAME
  2

  9
$UCSORG
 10
0.0
 20
0.0
 30
0.0
  9
$UCSXDIR
 10
1.0
 20
0.0
 30
0.0
  9
$UCSYDIR
 10
0.0
 20
1.0
 30
0.0
  9
$UCSORTHOREF
  2

  9
$UCSORTHOVIEW
 70
     0
  9
$UCSORGTOP
 10
0.0
 20
0.0
 30
0.0
  9
$UCSORGBOTTOM
 10
0.0
 20
0.0
 30
0.0
  9
$UCSORGLEFT
 10
0.0
 20
0.0
 30
0.0
  9
$UCSORGRIGHT
 10
0.0
 20
0.0
 30
0.0
  9
$UCSORGFRONT
 10
0.0
 20
0.0
 30
0.0
  9
$UCSORGBACK
 10
0.0
 20
0.0
 30
0.0
  9
$PUCSBASE
  2

  9
$PUCSNAME
  2

  9
$PUCSORG
 10
0.0
 20
0.0
 30
0.0
  9
$PUCSXDIR
 10
1.0
 20
0.0
 30
0.0
  9
$PUCSYDIR
 10
0.0
 20
1.0
 30
0.0
  9
$PUCSORTHOREF
  2

  9
$PUCSORTHOVIEW
 70
     0
  9
$PUCSORGTOP
 10
0.0
 20
0.0
 30
0.0
  9
$PUCSORGBOTTOM
 10
0.0
 20
0.0
 30
0.0
  9
$PUCSORGLEFT
 10
0.0
 20
0.0
 30
0.0
  9
$PUCSORGRIGHT
 10
0.0
 20
0.0
 30
0.0
  9
$PUCSORGFRONT
 10
0.0
 20
0.0
 30
0.0
  9
$PUCSORGBACK
 10
0.0
 20
0.0
 30
0.0
  9
$USERI1
 70
     0
  9
$USERI2
 70
     0
  9
$USERI3
 70
     0
  9
$USERI4
 70
     0
  9
$USERI5
 70
     0
  9
$USERR1
 40
0.0
  9
$USERR2
 40
0.0
  9
$USERR3
 40
0.0
  9
$USERR4
 40
0.0
  9
$USERR5
 40
0.0
  9
$WORLDVIEW
 70
     1
  9
$SHADEDGE
 70
     3
  9
$SHADEDIF
 70
    70
  9
$TILEMODE
 70
     1
  9
$MAXACTVP
 70
    64
  9
$PINSBASE
 10
0.0
 20
0.0
 30
0.0
  9
$PLIMCHECK
 70
     0
  9
$PEXTMIN
 10
-6.000000278478751
 20
-6.000000213669252
 30
0.0
  9
$PEXTMAX
 10
291.0318416794908
 20
203.9733271716299
 30
0.0
  9
$PLIMMIN
 10
-5.999987840652463
 20
-5.999999999999997
  9
$PLIMMAX
 10
291.0318419933318
 20
203.9733276367186
  9
$UNITMODE
 70
     0
  9
$VISRETAIN
 70
     1
  9
$PLINEGEN
 70
     0
  9
$PSLTSCALE
 70
     1
  9
$TREEDEPTH
 70
  3020
  9
$CMLSTYLE
  2
Standard
  9
$CMLJUST
 70
     0
  9
$CMLSCALE
 40
20.0
  9
$PROXYGRAPHICS
 70
     1
  9
$MEASUREMENT
 70
     1
  9
$CELWEIGHT
370
    -1
  9
$ENDCAPS
280
     0
  9
$JOINSTYLE
280
     0
  9
$LWDISPLAY
290
     0
  9
$INSUNITS
 70
     4
  9
$HYPERLINKBASE
  1

  9
$STYLESHEET
  1

  9
$XEDIT
290
     1
  9
$CEPSNTYPE
380
     0
  9
$PSTYLEMODE
290
     1
  9
$FINGERPRINTGUID
  2
{9A03CA01-DB2D-4F50-BDBF-3A55C281F4ED}
  9
$VERSIONGUID
  2
{AD7D584C-F276-4466-8EBD-71DEF87378B0}
  9
$EXTNAMES
290
     1
  9
$PSVPSCALE
 40
1.0
  9
$OLESTARTUP
290
     0
  0
ENDSEC
  0
SECTION
  2
CLASSES
  0
CLASS
  1
ACDBDICTIONARYWDFLT
  2
AcDbDictionaryWithDefault
  3
ObjectDBX Classes
 90
        0
280
     0
281
     0
  0
CLASS
  1
ACDBPLACEHOLDER
  2
AcDbPlaceHolder
  3
ObjectDBX Classes
 90
        0
280
     0
281
     0
  0
CLASS
  1
LAYOUT
  2
AcDbLayout
  3
ObjectDBX Classes
 90
        0
280
     0
281
     0
  0
CLASS
  1
DICTIONARYVAR
  2
AcDbDictionaryVar
  3
ObjectDBX Classes
 90
        0
280
     0
281
     0
  0
CLASS
  1
TABLESTYLE
  2
AcDbTableStyle
  3
ObjectDBX Classes
 90
     4095
280
     0
281
     0
  0
CLASS
  1
MATERIAL
  2
AcDbMaterial
  3
ObjectDBX Classes
 90
     1153
280
     0
281
     0
  0
CLASS
  1
VISUALSTYLE
  2
AcDbVisualStyle
  3
ObjectDBX Classes
 90
     4095
280
     0
281
     0
  0
CLASS
  1
SORTENTSTABLE
  2
AcDbSortentsTable
  3
ObjectDBX Classes
 90
        0
280
     0
281
     0
  0
CLASS
  1
DIMASSOC
  2
AcDbDimAssoc
  3
"AcDbDimAssoc|Product Desc:     AcDim ARX App For Dimension|Company:          Autodesk, Inc.|WEB Address:      www.autodesk.com"
 90
        0
280
     0
281
     0
  0
CLASS
  1
ACAD_EVALUATION_GRAPH
  2
AcDbEvalGraph
  3
ObjectDBX Classes
 90
    33921
280
     0
281
     0
  0
CLASS
  1
ACAECUSTOBJ
  2
AcAeEditorObj
  3
AcAeEditorObj
 90
    33792
280
     0
281
     0
  0
CLASS
  1
ACDB_DYNAMICBLOCKPURGEPREVENTER_VERSION
  2
AcDbDynamicBlockPurgePreventer
  3
ObjectDBX Classes
 90
    33921
280
     0
281
     0
  0
CLASS
  1
ACDB_BLOCKREPRESENTATION_DATA
  2
AcDbBlockRepresentationData
  3
ObjectDBX Classes
 90
    33921
280
     0
281
     0
  0
CLASS
  1
SCALE
  2
AcDbScale
  3
ObjectDBX Classes
 90
     1153
280
     0
281
     0
  0
CLASS
  1
MLEADERSTYLE
  2
AcDbMLeaderStyle
  3
ACDB_MLEADERSTYLE_CLASS
 90
     4095
280
     0
281
     0
  0
CLASS
  1
CELLSTYLEMAP
  2
AcDbCellStyleMap
  3
ObjectDBX Classes
 90
     1152
280
     0
281
     0
  0
CLASS
  1
EXACXREFPANELOBJECT
  2
ExAcXREFPanelObject
  3
EXAC_ESW
 90
     1025
280
     0
281
     0
  0
CLASS
  1
NPOCOLLECTION
  2
AcDbImpNonPersistentObjectsCollection
  3
ObjectDBX Classes
 90
     1153
280
     0
281
     0
  0
ENDSEC
  0
SECTION
  2
TABLES
  0
TABLE
  2
VPORT
  5
8
330
0
100
AcDbSymbolTable
 70
     1
  0
VPORT
  5
EA
330
8
100
AcDbSymbolTableRecord
100
AcDbViewportTableRecord
  2
*Active
 70
     0
 10
0.0
 20
0.0
 11
1.0
 21
1.0
 12
148.4888856441955
 22
105.0028595612503
 13
0.0
 23
0.0
 14
10.0
 24
10.0
 15
10.0
 25
10.0
 16
0.0
 26
0.0
 36
1.0
 17
0.0
 27
0.0
 37
0.0
 40
211.8553826138058
 41
1.849785407725321
 42
50.0
 43
0.0
 44
0.0
 50
0.0
 51
0.0
 71
     0
 72
  1000
 73
     1
 74
     3
 75
     0
 76
     0
 77
     0
 78
     0
281
     0
 65
     1
110
0.0
120
0.0
130
0.0
111
1.0
121
0.0
131
0.0
112
0.0
122
1.0
132
0.0
 79
     0
146
0.0
1001
ACAD_NAV_VCDISPLAY
1070
     3
  0
ENDTAB
  0
TABLE
  2
LTYPE
  5
5
330
0
100
AcDbSymbolTable
 70
     2
  0
LTYPE
  5
14
330
5
100
AcDbSymbolTableRecord
100
AcDbLinetypeTableRecord
  2
ByBlock
 70
     0
  3

 72
    65
 73
     0
 40
0.0
  0
LTYPE
  5
15
330
5
100
AcDbSymbolTableRecord
100
AcDbLinetypeTableRecord
  2
ByLayer
 70
     0
  3

 72
    65
 73
     0
 40
0.0
  0
LTYPE
  5
16
330
5
100
AcDbSymbolTableRecord
100
AcDbLinetypeTableRecord
  2
Continuous
 70
     0
  3
Solid line
 72
    65
 73
     0
 40
0.0
  0
LTYPE
  5
2571
330
5
100
AcDbSymbolTableRecord
100
AcDbLinetypeTableRecord
  2
VERDECKT
 70
     0
  3
Verdeckt __ __ __ __ __ __ __ __ __ __ __ __ __
 72
    65
 73
     2
 40
0.375
 49
0.25
 74
     0
 49
-0.125
 74
     0
  0
ENDTAB
  0
TABLE
  2
LAYER
  5
2
102
{ACAD_XDICTIONARY
360
120
102
}
330
0
100
AcDbSymbolTable
 70
     7
  0
LAYER
  5
10
102
{ACAD_XDICTIONARY
360
2891
102
}
330
2
100
AcDbSymbolTableRecord
100
AcDbLayerTableRecord
  2
0
 70
     0
 62
     7
  6
Continuous
370
    -3
390
F
  0
LAYER
  5
12AC
330
2
100
AcDbSymbolTableRecord
100
AcDbLayerTableRecord
  2
Defpoints
 70
     0
 62
     7
  6
Continuous
290
     0
370
    -3
390
F
  0
LAYER
  5
1EB9
102
{ACAD_XDICTIONARY
360
2893
102
}
330
2
100
AcDbSymbolTableRecord
100
AcDbLayerTableRecord
  2
Sohlbank
 70
     0
 62
     5
  6
Continuous
370
    -3
390
F
1001
AcAecLayerStandard
1000

1000

  0
LAYER
  5
1EBD
102
{ACAD_XDICTIONARY
360
2895
102
}
330
2
100
AcDbSymbolTableRecord
100
AcDbLayerTableRecord
  2
Bemaßung
 70
     0
 62
     1
  6
Continuous
370
    -3
390
F
  0
LAYER
  5
1EBE
102
{ACAD_XDICTIONARY
360
2897
102
}
330
2
100
AcDbSymbolTableRecord
100
AcDbLayerTableRecord
  2
Schraffur
 70
     0
 62
   251
  6
Continuous
370
    -3
390
F
1001
AcAecLayerStandard
1000

1000

  0
LAYER
  5
2572
102
{ACAD_XDICTIONARY
360
2899
102
}
330
2
100
AcDbSymbolTableRecord
100
AcDbLayerTableRecord
  2
Blendrahmen
 70
     0
 62
     5
  6
Continuous
370
    -3
390
F
1001
AcAecLayerStandard
1000

1000

  0
LAYER
  5
2573
102
{ACAD_XDICTIONARY
360
289B
102
}
330
2
100
AcDbSymbolTableRecord
100
AcDbLayerTableRecord
  2
Fräsung
 70
     0
 62
   252
  6
VERDECKT
370
    -3
390
F
1001
AcAecLayerStandard
1000

1000

  0
ENDTAB
  0
TABLE
  2
STYLE
  5
3
330
0
100
AcDbSymbolTable
 70
     2
  0
STYLE
  5
11
330
3
100
AcDbSymbolTableRecord
100
AcDbTextStyleTableRecord
  2
Standard
 70
     0
 40
0.0
 41
1.0
 50
0.0
 71
     0
 42
2.5
  3
txt
  4

  0
STYLE
  5
11D
330
3
100
AcDbSymbolTableRecord
100
AcDbTextStyleTableRecord
  2
RomanS
 70
     0
 40
0.0
 41
0.7
 50
0.0
 71
     0
 42
2.5
  3
romans.shx
  4

  0
ENDTAB
  0
TABLE
  2
VIEW
  5
6
330
0
100
AcDbSymbolTable
 70
     0
  0
ENDTAB
  0
TABLE
  2
UCS
  5
7
330
0
100
AcDbSymbolTable
 70
     0
  0
ENDTAB
  0
TABLE
  2
APPID
  5
9
330
0
100
AcDbSymbolTable
 70
    11
  0
APPID
  5
12
330
9
100
AcDbSymbolTableRecord
100
AcDbRegAppTableRecord
  2
ACAD
 70
     0
  0
APPID
  5
9E
330
9
100
AcDbSymbolTableRecord
100
AcDbRegAppTableRecord
  2
ACAD_PSEXT
 70
     0
  0
APPID
  5
1B4
330
9
100
AcDbSymbolTableRecord
100
AcDbRegAppTableRecord
  2
AcAecLayerStandard
 70
     0
  0
APPID
  5
3F2
330
9
100
AcDbSymbolTableRecord
100
AcDbRegAppTableRecord
  2
AcDbBlockRepETag
 70
     0
  0
APPID
  5
722
330
9
100
AcDbSymbolTableRecord
100
AcDbRegAppTableRecord
  2
ACAD_EXEMPT_FROM_CAD_STANDARDS
 70
     0
  0
APPID
  5
12AF
330
9
100
AcDbSymbolTableRecord
100
AcDbRegAppTableRecord
  2
AcDbDynamicBlockGUID
 70
     0
  0
APPID
  5
17A4
330
9
100
AcDbSymbolTableRecord
100
AcDbRegAppTableRecord
  2
ACAUTHENVIRON
 70
     0
  0
APPID
  5
17AA
330
9
100
AcDbSymbolTableRecord
100
AcDbRegAppTableRecord
  2
AcDbDynamicBlockTrueName
 70
     0
  0
APPID
  5
186B
330
9
100
AcDbSymbolTableRecord
100
AcDbRegAppTableRecord
  2
AcDbBlockRepBTag
 70
     0
  0
APPID
  5
283D
330
9
100
AcDbSymbolTableRecord
100
AcDbRegAppTableRecord
  2
ACAD_NAV_VCDISPLAY
 70
     0
  0
APPID
  5
2884
330
9
100
AcDbSymbolTableRecord
100
AcDbRegAppTableRecord
  2
ACAD_MLEADERVER
 70
     0
  0
ENDTAB
  0
TABLE
  2
DIMSTYLE
  5
A
330
0
100
AcDbSymbolTable
 70
     2
100
AcDbDimStyleTable
 71
     1
340
142C
  0
DIMSTYLE
105
11E
330
A
100
AcDbSymbolTableRecord
100
AcDbDimStyleTableRecord
  2
Standard
 70
     0
 41
0.5
 42
1.0
 43
2.0
 44
0.2
140
1.5
147
1.0
172
     1
271
     1
272
     1
340
11
371
     5
372
     5
  0
DIMSTYLE
105
142C
102
{ACAD_REACTORS
330
1F41
330
1F42
330
1F43
330
1F44
330
1F45
330
1F46
330
1F47
330
1F48
330
233A
330
233B
102
}
330
A
100
AcDbSymbolTableRecord
100
AcDbDimStyleTableRecord
  2
IDEAL Holz
 70
     0
 41
2.5
 42
0.625
 43
3.75
 44
1.25
 73
     0
 74
     0
 77
     1
 78
     8
140
2.5
141
2.5
143
0.03937007874016
147
0.625
171
     3
172
     1
271
     1
272
     1
274
     3
278
    44
283
     0
284
     8
340
11D
341
117
342
117
  0
ENDTAB
  0
TABLE
  2
BLOCK_RECORD
  5
1
330
0
100
AcDbSymbolTable
 70
    35
  0
BLOCK_RECORD
  5
1F
102
{ACAD_XDICTIONARY
360
732
102
}
330
1
100
AcDbSymbolTableRecord
100
AcDbBlockTableRecord
  2
*Model_Space
340
22
  0
BLOCK_RECORD
  5
1CC3
330
1
100
AcDbSymbolTableRecord
100
AcDbBlockTableRecord
  2
*Paper_Space
340
1CC8
  0
BLOCK_RECORD
  5
117
330
1
100
AcDbSymbolTableRecord
100
AcDbBlockTableRecord
  2
_Oblique
340
0
102
{BLKREFS
331
21DD
331
21DE
331
277A
331
277B
331
2783
331
2784
331
278C
331
278D
331
2795
331
2796
331
279E
331
279F
331
27A7
331
27A8
331
21E6
331
21E7
331
21EF
331
21F0
331
22E6
331
22E7
331
22EF
331
22F0
331
22F8
331
22F9
331
2301
331
2302
331
230A
331
230B
331
2357
331
2358
331
2360
331
2361
331
24E6
331
24E7
331
24F2
331
24F3
331
24FE
331
24FF
331
250A
331
250B
331
2516
331
2517
331
2522
331
2523
331
252E
331
252F
331
253A
331
253B
331
2546
331
2547
331
2552
331
2553
331
255E
331
255F
331
256A
331
256B
331
2703
331
2704
331
270C
331
270D
331
2715
331
2716
331
271E
331
271F
331
2742
331
2743
331
2771
331
2772
102
}
  0
BLOCK_RECORD
  5
1F6C
330
1
100
AcDbSymbolTableRecord
100
AcDbBlockTableRecord
  2
*D1
340
0
  0
BLOCK_RECORD
  5
1F78
330
1
100
AcDbSymbolTableRecord
100
AcDbBlockTableRecord
  2
*D2
340
0
  0
BLOCK_RECORD
  5
1F84
330
1
100
AcDbSymbolTableRecord
100
AcDbBlockTableRecord
  2
*D3
340
0
  0
BLOCK_RECORD
  5
1F90
330
1
100
AcDbSymbolTableRecord
100
AcDbBlockTableRecord
  2
*D4
340
0
  0
BLOCK_RECORD
  5
1F9C
330
1
100
AcDbSymbolTableRecord
100
AcDbBlockTableRecord
  2
*D5
340
0
  0
BLOCK_RECORD
  5
1FA8
330
1
100
AcDbSymbolTableRecord
100
AcDbBlockTableRecord
  2
*D6
340
0
  0
BLOCK_RECORD
  5
1FB4
330
1
100
AcDbSymbolTableRecord
100
AcDbBlockTableRecord
  2
*D7
340
0
  0
BLOCK_RECORD
  5
1FC0
330
1
100
AcDbSymbolTableRecord
100
AcDbBlockTableRecord
  2
*D8
340
0
  0
BLOCK_RECORD
  5
233C
330
1
100
AcDbSymbolTableRecord
100
AcDbBlockTableRecord
  2
*D9
340
0
  0
BLOCK_RECORD
  5
2348
330
1
100
AcDbSymbolTableRecord
100
AcDbBlockTableRecord
  2
*D10
340
0
  0
BLOCK_RECORD
  5
24E1
330
1
100
AcDbSymbolTableRecord
100
AcDbBlockTableRecord
  2
*D11
340
0
  0
BLOCK_RECORD
  5
24ED
330
1
100
AcDbSymbolTableRecord
100
AcDbBlockTableRecord
  2
*D12
340
0
  0
BLOCK_RECORD
  5
24F9
330
1
100
AcDbSymbolTableRecord
100
AcDbBlockTableRecord
  2
*D13
340
0
  0
BLOCK_RECORD
  5
2505
330
1
100
AcDbSymbolTableRecord
100
AcDbBlockTableRecord
  2
*D14
340
0
  0
BLOCK_RECORD
  5
2511
330
1
100
AcDbSymbolTableRecord
100
AcDbBlockTableRecord
  2
*D15
340
0
  0
BLOCK_RECORD
  5
251D
330
1
100
AcDbSymbolTableRecord
100
AcDbBlockTableRecord
  2
*D16
340
0
  0
BLOCK_RECORD
  5
2529
330
1
100
AcDbSymbolTableRecord
100
AcDbBlockTableRecord
  2
*D17
340
0
  0
BLOCK_RECORD
  5
2535
330
1
100
AcDbSymbolTableRecord
100
AcDbBlockTableRecord
  2
*D18
340
0
  0
BLOCK_RECORD
  5
2541
330
1
100
AcDbSymbolTableRecord
100
AcDbBlockTableRecord
  2
*D19
340
0
  0
BLOCK_RECORD
  5
254D
330
1
100
AcDbSymbolTableRecord
100
AcDbBlockTableRecord
  2
*D20
340
0
  0
BLOCK_RECORD
  5
2559
330
1
100
AcDbSymbolTableRecord
100
AcDbBlockTableRecord
  2
*D21
340
0
  0
BLOCK_RECORD
  5
2565
330
1
100
AcDbSymbolTableRecord
100
AcDbBlockTableRecord
  2
*D22
340
0
  0
BLOCK_RECORD
  5
2604
330
1
100
AcDbSymbolTableRecord
100
AcDbBlockTableRecord
  2
*D23
340
0
  0
BLOCK_RECORD
  5
2610
330
1
100
AcDbSymbolTableRecord
100
AcDbBlockTableRecord
  2
*D24
340
0
  0
BLOCK_RECORD
  5
261C
330
1
100
AcDbSymbolTableRecord
100
AcDbBlockTableRecord
  2
*D25
340
0
  0
BLOCK_RECORD
  5
2628
330
1
100
AcDbSymbolTableRecord
100
AcDbBlockTableRecord
  2
*D26
340
0
  0
BLOCK_RECORD
  5
2634
330
1
100
AcDbSymbolTableRecord
100
AcDbBlockTableRecord
  2
*D27
340
0
  0
BLOCK_RECORD
  5
2640
330
1
100
AcDbSymbolTableRecord
100
AcDbBlockTableRecord
  2
*D28
340
0
  0
BLOCK_RECORD
  5
264C
330
1
100
AcDbSymbolTableRecord
100
AcDbBlockTableRecord
  2
*D29
340
0
  0
BLOCK_RECORD
  5
2658
330
1
100
AcDbSymbolTableRecord
100
AcDbBlockTableRecord
  2
*D30
340
0
  0
BLOCK_RECORD
  5
2664
330
1
100
AcDbSymbolTableRecord
100
AcDbBlockTableRecord
  2
*D31
340
0
  0
BLOCK_RECORD
  5
2670
330
1
100
AcDbSymbolTableRecord
100
AcDbBlockTableRecord
  2
*D32
340
0
  0
BLOCK_RECORD
  5
267C
330
1
100
AcDbSymbolTableRecord
100
AcDbBlockTableRecord
  2
*D33
340
0
  0
BLOCK_RECORD
  5
2688
330
1
100
AcDbSymbolTableRecord
100
AcDbBlockTableRecord
  2
*D34
340
0
  0
ENDTAB
  0
ENDSEC
  0
SECTION
  2
BLOCKS
  0
BLOCK
  5
20
330
1F
100
AcDbEntity
  8
0
100
AcDbBlockBegin
  2
*Model_Space
 70
     0
 10
0.0
 20
0.0
 30
0.0
  3
*Model_Space
  1

  0
ENDBLK
  5
21
330
1F
100
AcDbEntity
  8
0
100
AcDbBlockEnd
  0
BLOCK
  5
1CC4
330
1CC3
100
AcDbEntity
 67
     1
  8
0
100
AcDbBlockBegin
  2
*Paper_Space
 70
     0
 10
0.0
 20
0.0
 30
0.0
  3
*Paper_Space
  1

  0
ENDBLK
  5
1CC7
330
1CC3
100
AcDbEntity
 67
     1
  8
0
100
AcDbBlockEnd
  0
BLOCK
  5
118
330
117
100
AcDbEntity
  8
0
 62
     1
 48
0.3
100
AcDbBlockBegin
  2
_Oblique
 70
     0
 10
0.0
 20
0.0
 30
0.0
  3
_Oblique
  1

  0
LINE
  5
119
330
117
100
AcDbEntity
  8
0
  6
ByBlock
 62
     0
370
    -2
100
AcDbLine
 10
-0.5
 20
-0.5
 30
0.0
 11
0.5
 21
0.5
 31
0.0
  0
ENDBLK
  5
11A
330
117
100
AcDbEntity
  8
0
 62
     1
 48
0.3
100
AcDbBlockEnd
  0
BLOCK
  5
1F76
330
1F6C
100
AcDbEntity
  8
0
100
AcDbBlockBegin
  2
*D1
 70
     1
 10
0.0
 20
0.0
 30
0.0
  3
*D1
  1

  0
LINE
  5
22F5
330
1F6C
100
AcDbEntity
  8
Bemaßung
 62
     0
370
    -2
100
AcDbLine
 10
186.2118588190933
 20
48.96542009642089
 30
0.0
 11
186.2118588190933
 21
49.59042009642089
 31
0.0
  0
LINE
  5
22F6
330
1F6C
100
AcDbEntity
  8
Bemaßung
 62
     0
370
    -2
100
AcDbLine
 10
174.2118588190933
 20
48.96542009642089
 30
0.0
 11
174.2118588190933
 21
49.59042009642089
 31
0.0
  0
LINE
  5
22F7
330
1F6C
100
AcDbEntity
  8
Bemaßung
 62
     0
370
    -2
100
AcDbLine
 10
186.2118588190933
 20
48.34042009642089
 30
0.0
 11
174.2118588190933
 21
48.34042009642089
 31
0.0
  0
INSERT
  5
22F8
330
1F6C
100
AcDbEntity
  8
Bemaßung
 62
     0
370
    -2
100
AcDbBlockReference
  2
_Oblique
 10
186.2118588190933
 20
48.34042009642089
 30
0.0
 41
2.5
 42
2.5
 43
2.5
  0
INSERT
  5
22F9
330
1F6C
100
AcDbEntity
  8
Bemaßung
 62
     0
370
    -2
100
AcDbBlockReference
  2
_Oblique
 10
174.2118588190933
 20
48.34042009642089
 30
0.0
 41
2.5
 42
2.5
 43
2.5
 50
180.0
  0
MTEXT
  5
22FA
330
1F6C
100
AcDbEntity
  8
Bemaßung
 62
     0
100
AcDbMText
 10
180.2118588190933
 20
50.21542009642089
 30
0.0
 40
2.5
 41
0.0
 71
     5
 72
     1
  1
12
  7
RomanS
 73
     1
 44
1.0
1001
ACAD
1000
MTEXTBEGIN
1070
    73
1070
     1
1070
    44
1040
1.0
1070
    74
1070
     0
1000
MTEXTEND
  0
POINT
  5
22FB
330
1F6C
100
AcDbEntity
  8
Defpoints
 62
     0
100
AcDbPoint
 10
186.2118588190933
 20
48.34042009642089
 30
0.0
  0
POINT
  5
22FC
330
1F6C
100
AcDbEntity
  8
Defpoints
 62
     0
100
AcDbPoint
 10
174.2118588190933
 20
48.34042009642089
 30
0.0
  0
POINT
  5
22FD
330
1F6C
100
AcDbEntity
  8
Defpoints
 62
     0
100
AcDbPoint
 10
174.2118588190933
 20
48.34042009642089
 30
0.0
  0
ENDBLK
  5
1F77
330
1F6C
100
AcDbEntity
  8
0
100
AcDbBlockEnd
  0
BLOCK
  5
1F82
330
1F78
100
AcDbEntity
  8
0
100
AcDbBlockBegin
  2
*D2
 70
     1
 10
0.0
 20
0.0
 30
0.0
  3
*D2
  1

  0
LINE
  5
22EC
330
1F78
100
AcDbEntity
  8
Bemaßung
 62
     0
370
    -2
100
AcDbLine
 10
171.3049137127768
 20
51.91454154400346
 30
0.0
 11
167.27296860646
 21
51.91454154400346
 31
0.0
  0
LINE
  5
22ED
330
1F78
100
AcDbEntity
  8
Bemaßung
 62
     0
370
    -2
100
AcDbLine
 10
171.7242408363336
 20
21.9145415440035
 30
0.0
 11
167.27296860646
 21
21.9145415440035
 31
0.0
  0
LINE
  5
22EE
330
1F78
100
AcDbEntity
  8
Bemaßung
 62
     0
370
    -2
100
AcDbLine
 10
168.52296860646
 20
51.91454154400346
 30
0.0
 11
168.52296860646
 21
21.9145415440035
 31
0.0
  0
INSERT
  5
22EF
330
1F78
100
AcDbEntity
  8
Bemaßung
 62
     0
370
    -2
100
AcDbBlockReference
  2
_Oblique
 10
168.52296860646
 20
51.91454154400346
 30
0.0
 41
2.5
 42
2.5
 43
2.5
 50
90.0
  0
INSERT
  5
22F0
330
1F78
100
AcDbEntity
  8
Bemaßung
 62
     0
370
    -2
100
AcDbBlockReference
  2
_Oblique
 10
168.52296860646
 20
21.9145415440035
 30
0.0
 41
2.5
 42
2.5
 43
2.5
 50
270.0
  0
MTEXT
  5
22F1
330
1F78
100
AcDbEntity
  8
Bemaßung
 62
     0
100
AcDbMText
 10
166.64796860646
 20
36.9145415440035
 30
0.0
 40
2.5
 41
0.0
 71
     5
 72
     1
  1
30
  7
RomanS
 11
0.0000000000000001
 21
1.0
 31
0.0
 73
     1
 44
1.0
1001
ACAD
1000
MTEXTBEGIN
1070
    73
1070
     1
1070
    44
1040
1.0
1070
    74
1070
     0
1000
MTEXTEND
  0
POINT
  5
22F2
330
1F78
100
AcDbEntity
  8
Defpoints
 62
     0
100
AcDbPoint
 10
171.9299137127768
 20
51.91454154400346
 30
0.0
  0
POINT
  5
22F3
330
1F78
100
AcDbEntity
  8
Defpoints
 62
     0
100
AcDbPoint
 10
172.3492408363336
 20
21.9145415440035
 30
0.0
  0
POINT
  5
22F4
330
1F78
100
AcDbEntity
  8
Defpoints
 62
     0
100
AcDbPoint
 10
168.52296860646
 20
21.9145415440035
 30
0.0
  0
ENDBLK
  5
1F83
330
1F78
100
AcDbEntity
  8
0
100
AcDbBlockEnd
  0
BLOCK
  5
1F8E
330
1F84
100
AcDbEntity
  8
0
100
AcDbBlockBegin
  2
*D3
 70
     1
 10
0.0
 20
0.0
 30
0.0
  3
*D3
  1

  0
LINE
  5
22E3
330
1F84
100
AcDbEntity
  8
Bemaßung
 62
     0
370
    -2
100
AcDbLine
 10
167.89796860646
 20
21.9145415440035
 30
0.0
 11
161.6807249429756
 21
21.9145415440035
 31
0.0
  0
LINE
  5
22E4
330
1F84
100
AcDbEntity
  8
Bemaßung
 62
     0
370
    -2
100
AcDbLine
 10
170.6450363348077
 20
56.91454154400346
 30
0.0
 11
161.6807249429756
 21
56.91454154400346
 31
0.0
  0
LINE
  5
22E5
330
1F84
100
AcDbEntity
  8
Bemaßung
 62
     0
370
    -2
100
AcDbLine
 10
162.9307249429755
 20
21.9145415440035
 30
0.0
 11
162.9307249429755
 21
56.91454154400346
 31
0.0
  0
INSERT
  5
22E6
330
1F84
100
AcDbEntity
  8
Bemaßung
 62
     0
370
    -2
100
AcDbBlockReference
  2
_Oblique
 10
162.9307249429755
 20
21.9145415440035
 30
0.0
 41
2.5
 42
2.5
 43
2.5
 50
270.0
  0
INSERT
  5
22E7
330
1F84
100
AcDbEntity
  8
Bemaßung
 62
     0
370
    -2
100
AcDbBlockReference
  2
_Oblique
 10
162.9307249429755
 20
56.91454154400346
 30
0.0
 41
2.5
 42
2.5
 43
2.5
 50
90.0
  0
MTEXT
  5
22E8
330
1F84
100
AcDbEntity
  8
Bemaßung
 62
     0
100
AcDbMText
 10
161.0557249429756
 20
39.4145415440035
 30
0.0
 40
2.5
 41
0.0
 71
     5
 72
     1
  1
35
  7
RomanS
 11
0.0000000000000001
 21
1.0
 31
0.0
 73
     1
 44
1.0
1001
ACAD
1000
MTEXTBEGIN
1070
    73
1070
     1
1070
    44
1040
1.0
1070
    74
1070
     0
1000
MTEXTEND
  0
POINT
  5
22E9
330
1F84
100
AcDbEntity
  8
Defpoints
 62
     0
100
AcDbPoint
 10
168.52296860646
 20
21.9145415440035
 30
0.0
  0
POINT
  5
22EA
330
1F84
100
AcDbEntity
  8
Defpoints
 62
     0
100
AcDbPoint
 10
171.2700363348077
 20
56.91454154400346
 30
0.0
  0
POINT
  5
22EB
330
1F84
100
AcDbEntity
  8
Defpoints
 62
     0
100
AcDbPoint
 10
162.9307249429755
 20
56.91454154400346
 30
0.0
  0
ENDBLK
  5
1F8F
330
1F84
100
AcDbEntity
  8
0
100
AcDbBlockEnd
  0
BLOCK
  5
1F9A
330
1F90
100
AcDbEntity
  8
0
100
AcDbBlockBegin
  2
*D4
 70
     1
 10
0.0
 20
0.0
 30
0.0
  3
*D4
  1

  0
LINE
  5
21DA
330
1F90
100
AcDbEntity
  8
Bemaßung
 62
     0
370
    -2
100
AcDbLine
 10
46.21185881909338
 20
48.96542009642089
 30
0.0
 11
46.21185881909338
 21
49.59042009642089
 31
0.0
  0
LINE
  5
21DB
330
1F90
100
AcDbEntity
  8
Bemaßung
 62
     0
370
    -2
100
AcDbLine
 10
34.21185881909333
 20
48.96542009642089
 30
0.0
 11
34.21185881909333
 21
49.59042009642089
 31
0.0
  0
LINE
  5
21DC
330
1F90
100
AcDbEntity
  8
Bemaßung
 62
     0
370
    -2
100
AcDbLine
 10
46.21185881909338
 20
48.34042009642089
 30
0.0
 11
34.21185881909333
 21
48.34042009642089
 31
0.0
  0
INSERT
  5
21DD
330
1F90
100
AcDbEntity
  8
Bemaßung
 62
     0
370
    -2
100
AcDbBlockReference
  2
_Oblique
 10
46.21185881909338
 20
48.34042009642089
 30
0.0
 41
2.5
 42
2.5
 43
2.5
  0
INSERT
  5
21DE
330
1F90
100
AcDbEntity
  8
Bemaßung
 62
     0
370
    -2
100
AcDbBlockReference
  2
_Oblique
 10
34.21185881909333
 20
48.34042009642089
 30
0.0
 41
2.5
 42
2.5
 43
2.5
 50
180.0
  0
MTEXT
  5
21DF
330
1F90
100
AcDbEntity
  8
Bemaßung
 62
     0
100
AcDbMText
 10
40.21185881909334
 20
50.21542009642089
 30
0.0
 40
2.5
 41
0.0
 71
     5
 72
     1
  1
12
  7
RomanS
 73
     1
 44
1.0
1001
ACAD
1000
MTEXTBEGIN
1070
    73
1070
     1
1070
    44
1040
1.0
1070
    74
1070
     0
1000
MTEXTEND
  0
POINT
  5
21E0
330
1F90
100
AcDbEntity
  8
Defpoints
 62
     0
100
AcDbPoint
 10
46.21185881909338
 20
48.34042009642089
 30
0.0
  0
POINT
  5
21E1
330
1F90
100
AcDbEntity
  8
Defpoints
 62
     0
100
AcDbPoint
 10
34.21185881909333
 20
48.34042009642089
 30
0.0
  0
POINT
  5
21E2
330
1F90
100
AcDbEntity
  8
Defpoints
 62
     0
100
AcDbPoint
 10
34.21185881909333
 20
48.34042009642089
 30
0.0
  0
ENDBLK
  5
1F9B
330
1F90
100
AcDbEntity
  8
0
100
AcDbBlockEnd
  0
BLOCK
  5
1FA6
330
1F9C
100
AcDbEntity
  8
0
100
AcDbBlockBegin
  2
*D5
 70
     1
 10
0.0
 20
0.0
 30
0.0
  3
*D5
  1

  0
LINE
  5
21E3
330
1F9C
100
AcDbEntity
  8
Bemaßung
 62
     0
370
    -2
100
AcDbLine
 10
31.30491371277691
 20
51.91454154400346
 30
0.0
 11
27.27296860646039
 21
51.91454154400346
 31
0.0
  0
LINE
  5
21E4
330
1F9C
100
AcDbEntity
  8
Bemaßung
 62
     0
370
    -2
100
AcDbLine
 10
31.72424083633359
 20
21.9145415440035
 30
0.0
 11
27.27296860646038
 21
21.9145415440035
 31
0.0
  0
LINE
  5
21E5
330
1F9C
100
AcDbEntity
  8
Bemaßung
 62
     0
370
    -2
100
AcDbLine
 10
28.52296860646039
 20
51.91454154400346
 30
0.0
 11
28.52296860646038
 21
21.9145415440035
 31
0.0
  0
INSERT
  5
21E6
330
1F9C
100
AcDbEntity
  8
Bemaßung
 62
     0
370
    -2
100
AcDbBlockReference
  2
_Oblique
 10
28.52296860646039
 20
51.91454154400346
 30
0.0
 41
2.5
 42
2.5
 43
2.5
 50
90.0
  0
INSERT
  5
21E7
330
1F9C
100
AcDbEntity
  8
Bemaßung
 62
     0
370
    -2
100
AcDbBlockReference
  2
_Oblique
 10
28.52296860646038
 20
21.9145415440035
 30
0.0
 41
2.5
 42
2.5
 43
2.5
 50
270.0
  0
MTEXT
  5
21E8
330
1F9C
100
AcDbEntity
  8
Bemaßung
 62
     0
100
AcDbMText
 10
26.64796860646038
 20
36.91454154400349
 30
0.0
 40
2.5
 41
0.0
 71
     5
 72
     1
  1
30
  7
RomanS
 11
0.0000000000000001
 21
1.0
 31
0.0
 73
     1
 44
1.0
1001
ACAD
1000
MTEXTBEGIN
1070
    73
1070
     1
1070
    44
1040
1.0
1070
    74
1070
     0
1000
MTEXTEND
  0
POINT
  5
21E9
330
1F9C
100
AcDbEntity
  8
Defpoints
 62
     0
100
AcDbPoint
 10
31.92991371277691
 20
51.91454154400346
 30
0.0
  0
POINT
  5
21EA
330
1F9C
100
AcDbEntity
  8
Defpoints
 62
     0
100
AcDbPoint
 10
32.34924083633359
 20
21.9145415440035
 30
0.0
  0
POINT
  5
21EB
330
1F9C
100
AcDbEntity
  8
Defpoints
 62
     0
100
AcDbPoint
 10
28.52296860646038
 20
21.9145415440035
 30
0.0
  0
ENDBLK
  5
1FA7
330
1F9C
100
AcDbEntity
  8
0
100
AcDbBlockEnd
  0
BLOCK
  5
1FB2
330
1FA8
100
AcDbEntity
  8
0
100
AcDbBlockBegin
  2
*D6
 70
     1
 10
0.0
 20
0.0
 30
0.0
  3
*D6
  1

  0
LINE
  5
21EC
330
1FA8
100
AcDbEntity
  8
Bemaßung
 62
     0
370
    -2
100
AcDbLine
 10
27.89796860646038
 20
21.9145415440035
 30
0.0
 11
21.68072494297535
 21
21.9145415440035
 31
0.0
  0
LINE
  5
21ED
330
1FA8
100
AcDbEntity
  8
Bemaßung
 62
     0
370
    -2
100
AcDbLine
 10
30.64503633480774
 20
56.91454154400346
 30
0.0
 11
21.68072494297536
 21
56.91454154400346
 31
0.0
  0
LINE
  5
21EE
330
1FA8
100
AcDbEntity
  8
Bemaßung
 62
     0
370
    -2
100
AcDbLine
 10
22.93072494297535
 20
21.9145415440035
 30
0.0
 11
22.93072494297536
 21
56.91454154400346
 31
0.0
  0
INSERT
  5
21EF
330
1FA8
100
AcDbEntity
  8
Bemaßung
 62
     0
370
    -2
100
AcDbBlockReference
  2
_Oblique
 10
22.93072494297535
 20
21.9145415440035
 30
0.0
 41
2.5
 42
2.5
 43
2.5
 50
270.0
  0
INSERT
  5
21F0
330
1FA8
100
AcDbEntity
  8
Bemaßung
 62
     0
370
    -2
100
AcDbBlockReference
  2
_Oblique
 10
22.93072494297536
 20
56.91454154400346
 30
0.0
 41
2.5
 42
2.5
 43
2.5
 50
90.0
  0
MTEXT
  5
21F1
330
1FA8
100
AcDbEntity
  8
Bemaßung
 62
     0
100
AcDbMText
 10
21.05572494297535
 20
39.41454154400349
 30
0.0
 40
2.5
 41
0.0
 71
     5
 72
     1
  1
35
  7
RomanS
 11
0.0000000000000001
 21
1.0
 31
0.0
 73
     1
 44
1.0
1001
ACAD
1000
MTEXTBEGIN
1070
    73
1070
     1
1070
    44
1040
1.0
1070
    74
1070
     0
1000
MTEXTEND
  0
POINT
  5
21F2
330
1FA8
100
AcDbEntity
  8
Defpoints
 62
     0
100
AcDbPoint
 10
28.52296860646038
 20
21.9145415440035
 30
0.0
  0
POINT
  5
21F3
330
1FA8
100
AcDbEntity
  8
Defpoints
 62
     0
100
AcDbPoint
 10
31.27003633480774
 20
56.91454154400346
 30
0.0
  0
POINT
  5
21F4
330
1FA8
100
AcDbEntity
  8
Defpoints
 62
     0
100
AcDbPoint
 10
22.93072494297536
 20
56.91454154400346
 30
0.0
  0
ENDBLK
  5
1FB3
330
1FA8
100
AcDbEntity
  8
0
100
AcDbBlockEnd
  0
BLOCK
  5
1FBE
330
1FB4
100
AcDbEntity
  8
0
100
AcDbBlockBegin
  2
*D7
 70
     1
 10
0.0
 20
0.0
 30
0.0
  3
*D7
  1

  0
LINE
  5
2307
330
1FB4
100
AcDbEntity
  8
Bemaßung
 62
     0
370
    -2
100
AcDbLine
 10
112.2118588190926
 20
52.78954154400363
 30
0.0
 11
112.2118588190926
 21
46.82334437716
 31
0.0
  0
LINE
  5
2308
330
1FB4
100
AcDbEntity
  8
Bemaßung
 62
     0
370
    -2
100
AcDbLine
 10
104.2118588190935
 20
49.24286286216812
 30
0.0
 11
104.2118588190935
 21
46.82334437716
 31
0.0
  0
LINE
  5
2309
330
1FB4
100
AcDbEntity
  8
Bemaßung
 62
     0
370
    -2
100
AcDbLine
 10
112.2118588190926
 20
48.07334437716
 30
0.0
 11
104.2118588190935
 21
48.07334437716
 31
0.0
  0
INSERT
  5
230A
330
1FB4
100
AcDbEntity
  8
Bemaßung
 62
     0
370
    -2
100
AcDbBlockReference
  2
_Oblique
 10
112.2118588190926
 20
48.07334437716
 30
0.0
 41
2.5
 42
2.5
 43
2.5
  0
INSERT
  5
230B
330
1FB4
100
AcDbEntity
  8
Bemaßung
 62
     0
370
    -2
100
AcDbBlockReference
  2
_Oblique
 10
104.2118588190935
 20
48.07334437716
 30
0.0
 41
2.5
 42
2.5
 43
2.5
 50
180.0
  0
MTEXT
  5
230C
330
1FB4
100
AcDbEntity
  8
Bemaßung
 62
     0
100
AcDbMText
 10
108.211858819093
 20
49.94834437716
 30
0.0
 40
2.5
 41
0.0
 71
     5
 72
     1
  1
8
  7
RomanS
 73
     1
 44
1.0
1001
ACAD
1000
MTEXTBEGIN
1070
    73
1070
     1
1070
    44
1040
1.0
1070
    74
1070
     0
1000
MTEXTEND
  0
POINT
  5
230D
330
1FB4
100
AcDbEntity
  8
Defpoints
 62
     0
100
AcDbPoint
 10
112.2118588190926
 20
53.41454154400363
 30
0.0
  0
POINT
  5
230E
330
1FB4
100
AcDbEntity
  8
Defpoints
 62
     0
100
AcDbPoint
 10
104.2118588190935
 20
49.86786286216812
 30
0.0
  0
POINT
  5
230F
330
1FB4
100
AcDbEntity
  8
Defpoints
 62
     0
100
AcDbPoint
 10
104.2118588190935
 20
48.07334437716
 30
0.0
  0
ENDBLK
  5
1FBF
330
1FB4
100
AcDbEntity
  8
0
100
AcDbBlockEnd
  0
BLOCK
  5
1FCA
330
1FC0
100
AcDbEntity
  8
0
100
AcDbBlockBegin
  2
*D8
 70
     1
 10
0.0
 20
0.0
 30
0.0
  3
*D8
  1

  0
LINE
  5
22FE
330
1FC0
100
AcDbEntity
  8
Bemaßung
 62
     0
370
    -2
100
AcDbLine
 10
116.2484758237887
 20
51.91454154400346
 30
0.0
 11
123.033573847566
 21
51.91454154400346
 31
0.0
  0
LINE
  5
22FF
330
1FC0
100
AcDbEntity
  8
Bemaßung
 62
     0
370
    -2
100
AcDbLine
 10
114.7072076559516
 20
21.9145415440035
 30
0.0
 11
123.033573847566
 21
21.9145415440035
 31
0.0
  0
LINE
  5
2300
330
1FC0
100
AcDbEntity
  8
Bemaßung
 62
     0
370
    -2
100
AcDbLine
 10
121.783573847566
 20
51.91454154400346
 30
0.0
 11
121.783573847566
 21
21.9145415440035
 31
0.0
  0
INSERT
  5
2301
330
1FC0
100
AcDbEntity
  8
Bemaßung
 62
     0
370
    -2
100
AcDbBlockReference
  2
_Oblique
 10
121.783573847566
 20
51.91454154400346
 30
0.0
 41
2.5
 42
2.5
 43
2.5
 50
90.0
  0
INSERT
  5
2302
330
1FC0
100
AcDbEntity
  8
Bemaßung
 62
     0
370
    -2
100
AcDbBlockReference
  2
_Oblique
 10
121.783573847566
 20
21.9145415440035
 30
0.0
 41
2.5
 42
2.5
 43
2.5
 50
270.0
  0
MTEXT
  5
2303
330
1FC0
100
AcDbEntity
  8
Bemaßung
 62
     0
100
AcDbMText
 10
119.908573847566
 20
36.9145415440035
 30
0.0
 40
2.5
 41
0.0
 71
     5
 72
     1
  1
30
  7
RomanS
 11
0.0000000000000001
 21
1.0
 31
0.0
 73
     1
 44
1.0
1001
ACAD
1000
MTEXTBEGIN
1070
    73
1070
     1
1070
    44
1040
1.0
1070
    74
1070
     0
1000
MTEXTEND
  0
POINT
  5
2304
330
1FC0
100
AcDbEntity
  8
Defpoints
 62
     0
100
AcDbPoint
 10
115.6234758237887
 20
51.91454154400346
 30
0.0
  0
POINT
  5
2305
330
1FC0
100
AcDbEntity
  8
Defpoints
 62
     0
100
AcDbPoint
 10
114.0822076559516
 20
21.9145415440035
 30
0.0
  0
POINT
  5
2306
330
1FC0
100
AcDbEntity
  8
Defpoints
 62
     0
100
AcDbPoint
 10
121.783573847566
 20
21.9145415440035
 30
0.0
  0
ENDBLK
  5
1FCB
330
1FC0
100
AcDbEntity
  8
0
100
AcDbBlockEnd
  0
BLOCK
  5
2346
330
233C
100
AcDbEntity
  8
0
100
AcDbBlockBegin
  2
*D9
 70
     1
 10
0.0
 20
0.0
 30
0.0
  3
*D9
  1

  0
LINE
  5
2354
330
233C
100
AcDbEntity
  8
Bemaßung
 62
     0
370
    -2
100
AcDbLine
 10
252.2118588190926
 20
135.8558310568926
 30
0.0
 11
252.2118588190926
 21
129.889633890049
 31
0.0
  0
LINE
  5
2355
330
233C
100
AcDbEntity
  8
Bemaßung
 62
     0
370
    -2
100
AcDbLine
 10
244.2118588190936
 20
132.3091523750572
 30
0.0
 11
244.2118588190936
 21
129.889633890049
 31
0.0
  0
LINE
  5
2356
330
233C
100
AcDbEntity
  8
Bemaßung
 62
     0
370
    -2
100
AcDbLine
 10
252.2118588190926
 20
131.139633890049
 30
0.0
 11
244.2118588190936
 21
131.139633890049
 31
0.0
  0
INSERT
  5
2357
330
233C
100
AcDbEntity
  8
Bemaßung
 62
     0
370
    -2
100
AcDbBlockReference
  2
_Oblique
 10
252.2118588190926
 20
131.139633890049
 30
0.0
 41
2.5
 42
2.5
 43
2.5
  0
INSERT
  5
2358
330
233C
100
AcDbEntity
  8
Bemaßung
 62
     0
370
    -2
100
AcDbBlockReference
  2
_Oblique
 10
244.2118588190936
 20
131.139633890049
 30
0.0
 41
2.5
 42
2.5
 43
2.5
 50
180.0
  0
MTEXT
  5
2359
330
233C
100
AcDbEntity
  8
Bemaßung
 62
     0
100
AcDbMText
 10
248.2118588190931
 20
133.014633890049
 30
0.0
 40
2.5
 41
0.0
 71
     5
 72
     1
  1
8
  7
RomanS
 73
     1
 44
1.0
1001
ACAD
1000
MTEXTBEGIN
1070
    73
1070
     1
1070
    44
1040
1.0
1070
    74
1070
     0
1000
MTEXTEND
  0
POINT
  5
235A
330
233C
100
AcDbEntity
  8
Defpoints
 62
     0
100
AcDbPoint
 10
252.2118588190926
 20
136.4808310568927
 30
0.0
  0
POINT
  5
235B
330
233C
100
AcDbEntity
  8
Defpoints
 62
     0
100
AcDbPoint
 10
244.2118588190936
 20
132.9341523750572
 30
0.0
  0
POINT
  5
235C
330
233C
100
AcDbEntity
  8
Defpoints
 62
     0
100
AcDbPoint
 10
244.2118588190936
 20
131.139633890049
 30
0.0
  0
ENDBLK
  5
2347
330
233C
100
AcDbEntity
  8
0
100
AcDbBlockEnd
  0
BLOCK
  5
2352
330
2348
100
AcDbEntity
  8
0
100
AcDbBlockBegin
  2
*D10
 70
     1
 10
0.0
 20
0.0
 30
0.0
  3
*D10
  1

  0
LINE
  5
235D
330
2348
100
AcDbEntity
  8
Bemaßung
 62
     0
370
    -2
100
AcDbLine
 10
256.2484758237888
 20
134.9808310568925
 30
0.0
 11
263.0335738475661
 21
134.9808310568925
 31
0.0
  0
LINE
  5
235E
330
2348
100
AcDbEntity
  8
Bemaßung
 62
     0
370
    -2
100
AcDbLine
 10
254.7072076559516
 20
104.9808310568925
 30
0.0
 11
263.033573847566
 21
104.9808310568925
 31
0.0
  0
LINE
  5
235F
330
2348
100
AcDbEntity
  8
Bemaßung
 62
     0
370
    -2
100
AcDbLine
 10
261.783573847566
 20
134.9808310568925
 30
0.0
 11
261.783573847566
 21
104.9808310568925
 31
0.0
  0
INSERT
  5
2360
330
2348
100
AcDbEntity
  8
Bemaßung
 62
     0
370
    -2
100
AcDbBlockReference
  2
_Oblique
 10
261.783573847566
 20
134.9808310568925
 30
0.0
 41
2.5
 42
2.5
 43
2.5
 50
90.0
  0
INSERT
  5
2361
330
2348
100
AcDbEntity
  8
Bemaßung
 62
     0
370
    -2
100
AcDbBlockReference
  2
_Oblique
 10
261.783573847566
 20
104.9808310568925
 30
0.0
 41
2.5
 42
2.5
 43
2.5
 50
270.0
  0
MTEXT
  5
2362
330
2348
100
AcDbEntity
  8
Bemaßung
 62
     0
100
AcDbMText
 10
259.908573847566
 20
119.9808310568925
 30
0.0
 40
2.5
 41
0.0
 71
     5
 72
     1
  1
30
  7
RomanS
 11
0.0000000000000001
 21
1.0
 31
0.0
 73
     1
 44
1.0
1001
ACAD
1000
MTEXTBEGIN
1070
    73
1070
     1
1070
    44
1040
1.0
1070
    74
1070
     0
1000
MTEXTEND
  0
POINT
  5
2363
330
2348
100
AcDbEntity
  8
Defpoints
 62
     0
100
AcDbPoint
 10
255.6234758237887
 20
134.9808310568925
 30
0.0
  0
POINT
  5
2364
330
2348
100
AcDbEntity
  8
Defpoints
 62
     0
100
AcDbPoint
 10
254.0822076559516
 20
104.9808310568925
 30
0.0
  0
POINT
  5
2365
330
2348
100
AcDbEntity
  8
Defpoints
 62
     0
100
AcDbPoint
 10
261.783573847566
 20
104.9808310568925
 30
0.0
  0
ENDBLK
  5
2353
330
2348
100
AcDbEntity
  8
0
100
AcDbBlockEnd
  0
BLOCK
  5
24E2
330
24E1
100
AcDbEntity
  8
0
100
AcDbBlockBegin
  2
*D11
 70
     1
 10
0.0
 20
0.0
 30
0.0
  3
*D11
  1

  0
LINE
  5
24E3
330
24E1
100
AcDbEntity
  8
Bemaßung
 62
     0
370
    -2
100
AcDbLine
 10
537.5939514079068
 20
31.58653314249341
 30
0.0
 11
544.9359018051691
 21
31.58653314249341
 31
0.0
  0
LINE
  5
24E4
330
24E1
100
AcDbEntity
  8
Bemaßung
 62
     0
370
    -2
100
AcDbLine
 10
537.5939514079068
 20
71.58653314249341
 30
0.0
 11
544.9359018051691
 21
71.58653314249339
 31
0.0
  0
LINE
  5
24E5
330
24E1
100
AcDbEntity
  8
Bemaßung
 62
     0
370
    -2
100
AcDbLine
 10
543.685901805169
 20
31.58653314249341
 30
0.0
 11
543.685901805169
 21
71.58653314249341
 31
0.0
  0
INSERT
  5
24E6
330
24E1
100
AcDbEntity
  8
Bemaßung
 62
     0
370
    -2
100
AcDbBlockReference
  2
_Oblique
 10
543.685901805169
 20
31.58653314249341
 30
0.0
 41
2.5
 42
2.5
 43
2.5
 50
270.0
  0
INSERT
  5
24E7
330
24E1
100
AcDbEntity
  8
Bemaßung
 62
     0
370
    -2
100
AcDbBlockReference
  2
_Oblique
 10
543.685901805169
 20
71.58653314249341
 30
0.0
 41
2.5
 42
2.5
 43
2.5
 50
90.0
  0
MTEXT
  5
24E8
330
24E1
100
AcDbEntity
  8
Bemaßung
 62
     0
100
AcDbMText
 10
541.8109018051691
 20
51.58653314249349
 30
0.0
 40
2.5
 41
0.0
 71
     5
 72
     1
  1
0-40
  7
RomanS
 11
0.0000000000000001
 21
1.0
 31
0.0
 73
     1
 44
1.0
1001
ACAD
1000
MTEXTBEGIN
1070
    73
1070
     1
1070
    44
1040
1.0
1070
    74
1070
     0
1000
MTEXTEND
  0
POINT
  5
24E9
330
24E1
100
AcDbEntity
  8
Defpoints
 62
     0
100
AcDbPoint
 10
536.9689514079068
 20
31.58653314249341
 30
0.0
  0
POINT
  5
24EA
330
24E1
100
AcDbEntity
  8
Defpoints
 62
     0
100
AcDbPoint
 10
536.9689514079068
 20
71.58653314249341
 30
0.0
  0
POINT
  5
24EB
330
24E1
100
AcDbEntity
  8
Defpoints
 62
     0
100
AcDbPoint
 10
543.685901805169
 20
71.58653314249341
 30
0.0
  0
ENDBLK
  5
24EC
330
24E1
100
AcDbEntity
  8
0
100
AcDbBlockEnd
  0
BLOCK
  5
24EE
330
24ED
100
AcDbEntity
  8
0
100
AcDbBlockBegin
  2
*D12
 70
     1
 10
0.0
 20
0.0
 30
0.0
  3
*D12
  1

  0
LINE
  5
24EF
330
24ED
100
AcDbEntity
  8
Bemaßung
 62
     0
370
    -2
100
AcDbLine
 10
496.9689514079071
 20
30.96153314249341
 30
0.0
 11
496.9689514079071
 21
22.61752871326485
 31
0.0
  0
LINE
  5
24F0
330
24ED
100
AcDbEntity
  8
Bemaßung
 62
     0
370
    -2
100
AcDbLine
 10
536.9689514079068
 20
30.96153314249341
 30
0.0
 11
536.9689514079068
 21
22.61752871326485
 31
0.0
  0
LINE
  5
24F1
330
24ED
100
AcDbEntity
  8
Bemaßung
 62
     0
370
    -2
100
AcDbLine
 10
496.9689514079071
 20
23.86752871326485
 30
0.0
 11
536.9689514079068
 21
23.86752871326485
 31
0.0
  0
INSERT
  5
24F2
330
24ED
100
AcDbEntity
  8
Bemaßung
 62
     0
370
    -2
100
AcDbBlockReference
  2
_Oblique
 10
496.9689514079071
 20
23.86752871326485
 30
0.0
 41
2.5
 42
2.5
 43
2.5
 50
180.0
  0
INSERT
  5
24F3
330
24ED
100
AcDbEntity
  8
Bemaßung
 62
     0
370
    -2
100
AcDbBlockReference
  2
_Oblique
 10
536.9689514079068
 20
23.86752871326485
 30
0.0
 41
2.5
 42
2.5
 43
2.5
  0
MTEXT
  5
24F4
330
24ED
100
AcDbEntity
  8
Bemaßung
 62
     0
100
AcDbMText
 10
516.9689514079068
 20
25.74252871326485
 30
0.0
 40
2.5
 41
0.0
 71
     5
 72
     1
  1
0-40
  7
RomanS
 73
     1
 44
1.0
1001
ACAD
1000
MTEXTBEGIN
1070
    73
1070
     1
1070
    44
1040
1.0
1070
    74
1070
     0
1000
MTEXTEND
  0
POINT
  5
24F5
330
24ED
100
AcDbEntity
  8
Defpoints
 62
     0
100
AcDbPoint
 10
496.9689514079071
 20
31.58653314249341
 30
0.0
  0
POINT
  5
24F6
330
24ED
100
AcDbEntity
  8
Defpoints
 62
     0
100
AcDbPoint
 10
536.9689514079068
 20
31.58653314249341
 30
0.0
  0
POINT
  5
24F7
330
24ED
100
AcDbEntity
  8
Defpoints
 62
     0
100
AcDbPoint
 10
536.9689514079068
 20
23.86752871326485
 30
0.0
  0
ENDBLK
  5
24F8
330
24ED
100
AcDbEntity
  8
0
100
AcDbBlockEnd
  0
BLOCK
  5
24FA
330
24F9
100
AcDbEntity
  8
0
100
AcDbBlockBegin
  2
*D13
 70
     1
 10
0.0
 20
0.0
 30
0.0
  3
*D13
  1

  0
LINE
  5
24FB
330
24F9
100
AcDbEntity
  8
Bemaßung
 62
     0
370
    -2
100
AcDbLine
 10
568.3439514079067
 20
31.58653314249341
 30
0.0
 11
561.0020010106445
 21
31.58653314249341
 31
0.0
  0
LINE
  5
24FC
330
24F9
100
AcDbEntity
  8
Bemaßung
 62
     0
370
    -2
100
AcDbLine
 10
568.3439514079067
 20
71.58653314249341
 30
0.0
 11
561.0020010106445
 21
71.58653314249341
 31
0.0
  0
LINE
  5
24FD
330
24F9
100
AcDbEntity
  8
Bemaßung
 62
     0
370
    -2
100
AcDbLine
 10
562.2520010106443
 20
31.58653314249341
 30
0.0
 11
562.2520010106443
 21
71.58653314249341
 31
0.0
  0
INSERT
  5
24FE
330
24F9
100
AcDbEntity
  8
Bemaßung
 62
     0
370
    -2
100
AcDbBlockReference
  2
_Oblique
 10
562.2520010106443
 20
31.58653314249341
 30
0.0
 41
2.5
 42
2.5
 43
2.5
 50
270.0
  0
INSERT
  5
24FF
330
24F9
100
AcDbEntity
  8
Bemaßung
 62
     0
370
    -2
100
AcDbBlockReference
  2
_Oblique
 10
562.2520010106443
 20
71.58653314249341
 30
0.0
 41
2.5
 42
2.5
 43
2.5
 50
90.0
  0
MTEXT
  5
2500
330
24F9
100
AcDbEntity
  8
Bemaßung
 62
     0
100
AcDbMText
 10
560.3770010106443
 20
51.58653314249349
 30
0.0
 40
2.5
 41
0.0
 71
     5
 72
     1
  1
0-40
  7
RomanS
 11
0.0000000000000001
 21
1.0
 31
0.0
 73
     1
 44
1.0
1001
ACAD
1000
MTEXTBEGIN
1070
    73
1070
     1
1070
    44
1040
1.0
1070
    74
1070
     0
1000
MTEXTEND
  0
POINT
  5
2501
330
24F9
100
AcDbEntity
  8
Defpoints
 62
     0
100
AcDbPoint
 10
568.9689514079067
 20
31.58653314249341
 30
0.0
  0
POINT
  5
2502
330
24F9
100
AcDbEntity
  8
Defpoints
 62
     0
100
AcDbPoint
 10
568.9689514079067
 20
71.58653314249341
 30
0.0
  0
POINT
  5
2503
330
24F9
100
AcDbEntity
  8
Defpoints
 62
     0
100
AcDbPoint
 10
562.2520010106443
 20
71.58653314249341
 30
0.0
  0
ENDBLK
  5
2504
330
24F9
100
AcDbEntity
  8
0
100
AcDbBlockEnd
  0
BLOCK
  5
2506
330
2505
100
AcDbEntity
  8
0
100
AcDbBlockBegin
  2
*D14
 70
     1
 10
0.0
 20
0.0
 30
0.0
  3
*D14
  1

  0
LINE
  5
2507
330
2505
100
AcDbEntity
  8
Bemaßung
 62
     0
370
    -2
100
AcDbLine
 10
608.9689514079065
 20
30.96153314249341
 30
0.0
 11
608.9689514079065
 21
22.61752871326485
 31
0.0
  0
LINE
  5
2508
330
2505
100
AcDbEntity
  8
Bemaßung
 62
     0
370
    -2
100
AcDbLine
 10
568.9689514079067
 20
30.96153314249341
 30
0.0
 11
568.9689514079067
 21
22.61752871326485
 31
0.0
  0
LINE
  5
2509
330
2505
100
AcDbEntity
  8
Bemaßung
 62
     0
370
    -2
100
AcDbLine
 10
608.9689514079065
 20
23.86752871326485
 30
0.0
 11
568.9689514079067
 21
23.86752871326485
 31
0.0
  0
INSERT
  5
250A
330
2505
100
AcDbEntity
  8
Bemaßung
 62
     0
370
    -2
100
AcDbBlockReference
  2
_Oblique
 10
608.9689514079065
 20
23.86752871326485
 30
0.0
 41
2.5
 42
2.5
 43
2.5
  0
INSERT
  5
250B
330
2505
100
AcDbEntity
  8
Bemaßung
 62
     0
370
    -2
100
AcDbBlockReference
  2
_Oblique
 10
568.9689514079067
 20
23.86752871326485
 30
0.0
 41
2.5
 42
2.5
 43
2.5
 50
180.0
  0
MTEXT
  5
250C
330
2505
100
AcDbEntity
  8
Bemaßung
 62
     0
100
AcDbMText
 10
588.9689514079066
 20
25.74252871326485
 30
0.0
 40
2.5
 41
0.0
 71
     5
 72
     1
  1
0-40
  7
RomanS
 73
     1
 44
1.0
1001
ACAD
1000
MTEXTBEGIN
1070
    73
1070
     1
1070
    44
1040
1.0
1070
    74
1070
     0
1000
MTEXTEND
  0
POINT
  5
250D
330
2505
100
AcDbEntity
  8
Defpoints
 62
     0
100
AcDbPoint
 10
608.9689514079065
 20
31.58653314249341
 30
0.0
  0
POINT
  5
250E
330
2505
100
AcDbEntity
  8
Defpoints
 62
     0
100
AcDbPoint
 10
568.9689514079067
 20
31.58653314249341
 30
0.0
  0
POINT
  5
250F
330
2505
100
AcDbEntity
  8
Defpoints
 62
     0
100
AcDbPoint
 10
568.9689514079067
 20
23.86752871326485
 30
0.0
  0
ENDBLK
  5
2510
330
2505
100
AcDbEntity
  8
0
100
AcDbBlockEnd
  0
BLOCK
  5
2512
330
2511
100
AcDbEntity
  8
0
100
AcDbBlockBegin
  2
*D15
 70
     1
 10
0.0
 20
0.0
 30
0.0
  3
*D15
  1

  0
LINE
  5
2513
330
2511
100
AcDbEntity
  8
Bemaßung
 62
     0
370
    -2
100
AcDbLine
 10
668.3439514079067
 20
31.58653314249341
 30
0.0
 11
661.0020010106445
 21
31.58653314249341
 31
0.0
  0
LINE
  5
2514
330
2511
100
AcDbEntity
  8
Bemaßung
 62
     0
370
    -2
100
AcDbLine
 10
668.3439514079067
 20
71.58653314249341
 30
0.0
 11
661.0020010106445
 21
71.58653314249341
 31
0.0
  0
LINE
  5
2515
330
2511
100
AcDbEntity
  8
Bemaßung
 62
     0
370
    -2
100
AcDbLine
 10
662.2520010106442
 20
31.58653314249341
 30
0.0
 11
662.2520010106442
 21
71.58653314249341
 31
0.0
  0
INSERT
  5
2516
330
2511
100
AcDbEntity
  8
Bemaßung
 62
     0
370
    -2
100
AcDbBlockReference
  2
_Oblique
 10
662.2520010106442
 20
31.58653314249341
 30
0.0
 41
2.5
 42
2.5
 43
2.5
 50
270.0
  0
INSERT
  5
2517
330
2511
100
AcDbEntity
  8
Bemaßung
 62
     0
370
    -2
100
AcDbBlockReference
  2
_Oblique
 10
662.2520010106442
 20
71.58653314249341
 30
0.0
 41
2.5
 42
2.5
 43
2.5
 50
90.0
  0
MTEXT
  5
2518
330
2511
100
AcDbEntity
  8
Bemaßung
 62
     0
100
AcDbMText
 10
660.3770010106442
 20
51.58653314249351
 30
0.0
 40
2.5
 41
0.0
 71
     5
 72
     1
  1
0-40
  7
RomanS
 11
0.0000000000000001
 21
1.0
 31
0.0
 73
     1
 44
1.0
1001
ACAD
1000
MTEXTBEGIN
1070
    73
1070
     1
1070
    44
1040
1.0
1070
    74
1070
     0
1000
MTEXTEND
  0
POINT
  5
2519
330
2511
100
AcDbEntity
  8
Defpoints
 62
     0
100
AcDbPoint
 10
668.9689514079067
 20
31.58653314249341
 30
0.0
  0
POINT
  5
251A
330
2511
100
AcDbEntity
  8
Defpoints
 62
     0
100
AcDbPoint
 10
668.9689514079067
 20
71.58653314249341
 30
0.0
  0
POINT
  5
251B
330
2511
100
AcDbEntity
  8
Defpoints
 62
     0
100
AcDbPoint
 10
662.2520010106442
 20
71.58653314249341
 30
0.0
  0
ENDBLK
  5
251C
330
2511
100
AcDbEntity
  8
0
100
AcDbBlockEnd
  0
BLOCK
  5
251E
330
251D
100
AcDbEntity
  8
0
100
AcDbBlockBegin
  2
*D16
 70
     1
 10
0.0
 20
0.0
 30
0.0
  3
*D16
  1

  0
LINE
  5
251F
330
251D
100
AcDbEntity
  8
Bemaßung
 62
     0
370
    -2
100
AcDbLine
 10
708.9689514079065
 20
30.96153314249341
 30
0.0
 11
708.9689514079065
 21
25.53953092787913
 31
0.0
  0
LINE
  5
2520
330
251D
100
AcDbEntity
  8
Bemaßung
 62
     0
370
    -2
100
AcDbLine
 10
668.9689514079067
 20
30.96153314249341
 30
0.0
 11
668.9689514079067
 21
25.53953092787913
 31
0.0
  0
LINE
  5
2521
330
251D
100
AcDbEntity
  8
Bemaßung
 62
     0
370
    -2
100
AcDbLine
 10
708.9689514079065
 20
26.78953092787913
 30
0.0
 11
668.9689514079067
 21
26.78953092787913
 31
0.0
  0
INSERT
  5
2522
330
251D
100
AcDbEntity
  8
Bemaßung
 62
     0
370
    -2
100
AcDbBlockReference
  2
_Oblique
 10
708.9689514079065
 20
26.78953092787913
 30
0.0
 41
2.5
 42
2.5
 43
2.5
  0
INSERT
  5
2523
330
251D
100
AcDbEntity
  8
Bemaßung
 62
     0
370
    -2
100
AcDbBlockReference
  2
_Oblique
 10
668.9689514079067
 20
26.78953092787913
 30
0.0
 41
2.5
 42
2.5
 43
2.5
 50
180.0
  0
MTEXT
  5
2524
330
251D
100
AcDbEntity
  8
Bemaßung
 62
     0
100
AcDbMText
 10
688.9689514079066
 20
28.66453092787913
 30
0.0
 40
2.5
 41
0.0
 71
     5
 72
     1
  1
0-40
  7
RomanS
 73
     1
 44
1.0
1001
ACAD
1000
MTEXTBEGIN
1070
    73
1070
     1
1070
    44
1040
1.0
1070
    74
1070
     0
1000
MTEXTEND
  0
POINT
  5
2525
330
251D
100
AcDbEntity
  8
Defpoints
 62
     0
100
AcDbPoint
 10
708.9689514079065
 20
31.58653314249341
 30
0.0
  0
POINT
  5
2526
330
251D
100
AcDbEntity
  8
Defpoints
 62
     0
100
AcDbPoint
 10
668.9689514079067
 20
31.58653314249341
 30
0.0
  0
POINT
  5
2527
330
251D
100
AcDbEntity
  8
Defpoints
 62
     0
100
AcDbPoint
 10
668.9689514079067
 20
26.78953092787913
 30
0.0
  0
ENDBLK
  5
2528
330
251D
100
AcDbEntity
  8
0
100
AcDbBlockEnd
  0
BLOCK
  5
252A
330
2529
100
AcDbEntity
  8
0
100
AcDbBlockBegin
  2
*D17
 70
     1
 10
0.0
 20
0.0
 30
0.0
  3
*D17
  1

  0
LINE
  5
252B
330
2529
100
AcDbEntity
  8
Bemaßung
 62
     0
370
    -2
100
AcDbLine
 10
737.5939514079068
 20
31.58653314249341
 30
0.0
 11
744.9359018051691
 21
31.5865331424934
 31
0.0
  0
LINE
  5
252C
330
2529
100
AcDbEntity
  8
Bemaßung
 62
     0
370
    -2
100
AcDbLine
 10
737.5939514079068
 20
71.58653314249341
 30
0.0
 11
744.9359018051691
 21
71.58653314249341
 31
0.0
  0
LINE
  5
252D
330
2529
100
AcDbEntity
  8
Bemaßung
 62
     0
370
    -2
100
AcDbLine
 10
743.6859018051691
 20
31.58653314249341
 30
0.0
 11
743.6859018051691
 21
71.58653314249341
 31
0.0
  0
INSERT
  5
252E
330
2529
100
AcDbEntity
  8
Bemaßung
 62
     0
370
    -2
100
AcDbBlockReference
  2
_Oblique
 10
743.6859018051691
 20
31.58653314249341
 30
0.0
 41
2.5
 42
2.5
 43
2.5
 50
270.0
  0
INSERT
  5
252F
330
2529
100
AcDbEntity
  8
Bemaßung
 62
     0
370
    -2
100
AcDbBlockReference
  2
_Oblique
 10
743.6859018051691
 20
71.58653314249341
 30
0.0
 41
2.5
 42
2.5
 43
2.5
 50
90.0
  0
MTEXT
  5
2530
330
2529
100
AcDbEntity
  8
Bemaßung
 62
     0
100
AcDbMText
 10
741.8109018051691
 20
51.58653314249353
 30
0.0
 40
2.5
 41
0.0
 71
     5
 72
     1
  1
0-40
  7
RomanS
 11
0.0000000000000001
 21
1.0
 31
0.0
 73
     1
 44
1.0
1001
ACAD
1000
MTEXTBEGIN
1070
    73
1070
     1
1070
    44
1040
1.0
1070
    74
1070
     0
1000
MTEXTEND
  0
POINT
  5
2531
330
2529
100
AcDbEntity
  8
Defpoints
 62
     0
100
AcDbPoint
 10
736.9689514079068
 20
31.58653314249341
 30
0.0
  0
POINT
  5
2532
330
2529
100
AcDbEntity
  8
Defpoints
 62
     0
100
AcDbPoint
 10
736.9689514079068
 20
71.58653314249341
 30
0.0
  0
POINT
  5
2533
330
2529
100
AcDbEntity
  8
Defpoints
 62
     0
100
AcDbPoint
 10
743.6859018051691
 20
71.58653314249341
 30
0.0
  0
ENDBLK
  5
2534
330
2529
100
AcDbEntity
  8
0
100
AcDbBlockEnd
  0
BLOCK
  5
2536
330
2535
100
AcDbEntity
  8
0
100
AcDbBlockBegin
  2
*D18
 70
     1
 10
0.0
 20
0.0
 30
0.0
  3
*D18
  1

  0
LINE
  5
2537
330
2535
100
AcDbEntity
  8
Bemaßung
 62
     0
370
    -2
100
AcDbLine
 10
696.9689514079068
 20
24.03601019582789
 30
0.0
 11
696.9689514079068
 21
19.49399365877298
 31
0.0
  0
LINE
  5
2538
330
2535
100
AcDbEntity
  8
Bemaßung
 62
     0
370
    -2
100
AcDbLine
 10
736.9689514079068
 20
28.82760976760597
 30
0.0
 11
736.9689514079068
 21
19.49399365877298
 31
0.0
  0
LINE
  5
2539
330
2535
100
AcDbEntity
  8
Bemaßung
 62
     0
370
    -2
100
AcDbLine
 10
696.9689514079068
 20
20.74399365877298
 30
0.0
 11
736.9689514079068
 21
20.74399365877298
 31
0.0
  0
INSERT
  5
253A
330
2535
100
AcDbEntity
  8
Bemaßung
 62
     0
370
    -2
100
AcDbBlockReference
  2
_Oblique
 10
696.9689514079068
 20
20.74399365877298
 30
0.0
 41
2.5
 42
2.5
 43
2.5
 50
180.0
  0
INSERT
  5
253B
330
2535
100
AcDbEntity
  8
Bemaßung
 62
     0
370
    -2
100
AcDbBlockReference
  2
_Oblique
 10
736.9689514079068
 20
20.74399365877298
 30
0.0
 41
2.5
 42
2.5
 43
2.5
  0
MTEXT
  5
253C
330
2535
100
AcDbEntity
  8
Bemaßung
 62
     0
100
AcDbMText
 10
716.9689514079068
 20
22.61899365877298
 30
0.0
 40
2.5
 41
0.0
 71
     5
 72
     1
  1
0-40
  7
RomanS
 73
     1
 44
1.0
1001
ACAD
1000
MTEXTBEGIN
1070
    73
1070
     1
1070
    44
1040
1.0
1070
    74
1070
     0
1000
MTEXTEND
  0
POINT
  5
253D
330
2535
100
AcDbEntity
  8
Defpoints
 62
     0
100
AcDbPoint
 10
696.9689514079068
 20
24.66101019582789
 30
0.0
  0
POINT
  5
253E
330
2535
100
AcDbEntity
  8
Defpoints
 62
     0
100
AcDbPoint
 10
736.9689514079068
 20
29.45260976760597
 30
0.0
  0
POINT
  5
253F
330
2535
100
AcDbEntity
  8
Defpoints
 62
     0
100
AcDbPoint
 10
736.9689514079068
 20
20.74399365877298
 30
0.0
  0
ENDBLK
  5
2540
330
2535
100
AcDbEntity
  8
0
100
AcDbBlockEnd
  0
BLOCK
  5
2542
330
2541
100
AcDbEntity
  8
0
100
AcDbBlockBegin
  2
*D19
 70
     1
 10
0.0
 20
0.0
 30
0.0
  3
*D19
  1

  0
LINE
  5
2543
330
2541
100
AcDbEntity
  8
Bemaßung
 62
     0
370
    -2
100
AcDbLine
 10
768.3439514079068
 20
31.58653314249341
 30
0.0
 11
761.0020010106445
 21
31.58653314249341
 31
0.0
  0
LINE
  5
2544
330
2541
100
AcDbEntity
  8
Bemaßung
 62
     0
370
    -2
100
AcDbLine
 10
768.3439514079068
 20
71.58653314249341
 30
0.0
 11
761.0020010106445
 21
71.58653314249341
 31
0.0
  0
LINE
  5
2545
330
2541
100
AcDbEntity
  8
Bemaßung
 62
     0
370
    -2
100
AcDbLine
 10
762.2520010106446
 20
31.58653314249341
 30
0.0
 11
762.2520010106446
 21
71.58653314249341
 31
0.0
  0
INSERT
  5
2546
330
2541
100
AcDbEntity
  8
Bemaßung
 62
     0
370
    -2
100
AcDbBlockReference
  2
_Oblique
 10
762.2520010106446
 20
31.58653314249341
 30
0.0
 41
2.5
 42
2.5
 43
2.5
 50
270.0
  0
INSERT
  5
2547
330
2541
100
AcDbEntity
  8
Bemaßung
 62
     0
370
    -2
100
AcDbBlockReference
  2
_Oblique
 10
762.2520010106446
 20
71.58653314249341
 30
0.0
 41
2.5
 42
2.5
 43
2.5
 50
90.0
  0
MTEXT
  5
2548
330
2541
100
AcDbEntity
  8
Bemaßung
 62
     0
100
AcDbMText
 10
760.3770010106445
 20
51.58653314249352
 30
0.0
 40
2.5
 41
0.0
 71
     5
 72
     1
  1
0-40
  7
RomanS
 11
0.0000000000000001
 21
1.0
 31
0.0
 73
     1
 44
1.0
1001
ACAD
1000
MTEXTBEGIN
1070
    73
1070
     1
1070
    44
1040
1.0
1070
    74
1070
     0
1000
MTEXTEND
  0
POINT
  5
2549
330
2541
100
AcDbEntity
  8
Defpoints
 62
     0
100
AcDbPoint
 10
768.9689514079068
 20
31.58653314249341
 30
0.0
  0
POINT
  5
254A
330
2541
100
AcDbEntity
  8
Defpoints
 62
     0
100
AcDbPoint
 10
768.9689514079068
 20
71.58653314249341
 30
0.0
  0
POINT
  5
254B
330
2541
100
AcDbEntity
  8
Defpoints
 62
     0
100
AcDbPoint
 10
762.2520010106446
 20
71.58653314249341
 30
0.0
  0
ENDBLK
  5
254C
330
2541
100
AcDbEntity
  8
0
100
AcDbBlockEnd
  0
BLOCK
  5
254E
330
254D
100
AcDbEntity
  8
0
100
AcDbBlockBegin
  2
*D20
 70
     1
 10
0.0
 20
0.0
 30
0.0
  3
*D20
  1

  0
LINE
  5
254F
330
254D
100
AcDbEntity
  8
Bemaßung
 62
     0
370
    -2
100
AcDbLine
 10
808.9689514079065
 20
30.96153314249341
 30
0.0
 11
808.9689514079065
 21
22.61752871326485
 31
0.0
  0
LINE
  5
2550
330
254D
100
AcDbEntity
  8
Bemaßung
 62
     0
370
    -2
100
AcDbLine
 10
768.9689514079068
 20
30.96153314249341
 30
0.0
 11
768.9689514079068
 21
22.61752871326485
 31
0.0
  0
LINE
  5
2551
330
254D
100
AcDbEntity
  8
Bemaßung
 62
     0
370
    -2
100
AcDbLine
 10
808.9689514079065
 20
23.86752871326485
 30
0.0
 11
768.9689514079068
 21
23.86752871326485
 31
0.0
  0
INSERT
  5
2552
330
254D
100
AcDbEntity
  8
Bemaßung
 62
     0
370
    -2
100
AcDbBlockReference
  2
_Oblique
 10
808.9689514079065
 20
23.86752871326485
 30
0.0
 41
2.5
 42
2.5
 43
2.5
  0
INSERT
  5
2553
330
254D
100
AcDbEntity
  8
Bemaßung
 62
     0
370
    -2
100
AcDbBlockReference
  2
_Oblique
 10
768.9689514079068
 20
23.86752871326485
 30
0.0
 41
2.5
 42
2.5
 43
2.5
 50
180.0
  0
MTEXT
  5
2554
330
254D
100
AcDbEntity
  8
Bemaßung
 62
     0
100
AcDbMText
 10
788.9689514079068
 20
25.74252871326485
 30
0.0
 40
2.5
 41
0.0
 71
     5
 72
     1
  1
0-40
  7
RomanS
 73
     1
 44
1.0
1001
ACAD
1000
MTEXTBEGIN
1070
    73
1070
     1
1070
    44
1040
1.0
1070
    74
1070
     0
1000
MTEXTEND
  0
POINT
  5
2555
330
254D
100
AcDbEntity
  8
Defpoints
 62
     0
100
AcDbPoint
 10
808.9689514079065
 20
31.58653314249341
 30
0.0
  0
POINT
  5
2556
330
254D
100
AcDbEntity
  8
Defpoints
 62
     0
100
AcDbPoint
 10
768.9689514079068
 20
31.58653314249341
 30
0.0
  0
POINT
  5
2557
330
254D
100
AcDbEntity
  8
Defpoints
 62
     0
100
AcDbPoint
 10
768.9689514079068
 20
23.86752871326485
 30
0.0
  0
ENDBLK
  5
2558
330
254D
100
AcDbEntity
  8
0
100
AcDbBlockEnd
  0
BLOCK
  5
255A
330
2559
100
AcDbEntity
  8
0
100
AcDbBlockBegin
  2
*D21
 70
     1
 10
0.0
 20
0.0
 30
0.0
  3
*D21
  1

  0
LINE
  5
255B
330
2559
100
AcDbEntity
  8
Bemaßung
 62
     0
370
    -2
100
AcDbLine
 10
537.5939514079074
 20
-68.41346685750659
 30
0.0
 11
544.9359018051697
 21
-68.41346685750661
 31
0.0
  0
LINE
  5
255C
330
2559
100
AcDbEntity
  8
Bemaßung
 62
     0
370
    -2
100
AcDbLine
 10
537.5939514079074
 20
-28.41346685750659
 30
0.0
 11
544.9359018051697
 21
-28.41346685750659
 31
0.0
  0
LINE
  5
255D
330
2559
100
AcDbEntity
  8
Bemaßung
 62
     0
370
    -2
100
AcDbLine
 10
543.6859018051697
 20
-68.41346685750659
 30
0.0
 11
543.6859018051697
 21
-28.41346685750659
 31
0.0
  0
INSERT
  5
255E
330
2559
100
AcDbEntity
  8
Bemaßung
 62
     0
370
    -2
100
AcDbBlockReference
  2
_Oblique
 10
543.6859018051697
 20
-68.41346685750659
 30
0.0
 41
2.5
 42
2.5
 43
2.5
 50
270.0
  0
INSERT
  5
255F
330
2559
100
AcDbEntity
  8
Bemaßung
 62
     0
370
    -2
100
AcDbBlockReference
  2
_Oblique
 10
543.6859018051697
 20
-28.41346685750659
 30
0.0
 41
2.5
 42
2.5
 43
2.5
 50
90.0
  0
MTEXT
  5
2560
330
2559
100
AcDbEntity
  8
Bemaßung
 62
     0
100
AcDbMText
 10
541.8109018051697
 20
-48.4134668575065
 30
0.0
 40
2.5
 41
0.0
 71
     5
 72
     1
  1
0-40
  7
RomanS
 11
0.0000000000000001
 21
1.0
 31
0.0
 73
     1
 44
1.0
1001
ACAD
1000
MTEXTBEGIN
1070
    73
1070
     1
1070
    44
1040
1.0
1070
    74
1070
     0
1000
MTEXTEND
  0
POINT
  5
2561
330
2559
100
AcDbEntity
  8
Defpoints
 62
     0
100
AcDbPoint
 10
536.9689514079074
 20
-68.41346685750659
 30
0.0
  0
POINT
  5
2562
330
2559
100
AcDbEntity
  8
Defpoints
 62
     0
100
AcDbPoint
 10
536.9689514079074
 20
-28.41346685750659
 30
0.0
  0
POINT
  5
2563
330
2559
100
AcDbEntity
  8
Defpoints
 62
     0
100
AcDbPoint
 10
543.6859018051697
 20
-28.41346685750659
 30
0.0
  0
ENDBLK
  5
2564
330
2559
100
AcDbEntity
  8
0
100
AcDbBlockEnd
  0
BLOCK
  5
2566
330
2565
100
AcDbEntity
  8
0
100
AcDbBlockBegin
  2
*D22
 70
     1
 10
0.0
 20
0.0
 30
0.0
  3
*D22
  1

  0
LINE
  5
2567
330
2565
100
AcDbEntity
  8
Bemaßung
 62
     0
370
    -2
100
AcDbLine
 10
496.9689514079076
 20
-69.03846685750659
 30
0.0
 11
496.9689514079076
 21
-77.38247128673515
 31
0.0
  0
LINE
  5
2568
330
2565
100
AcDbEntity
  8
Bemaßung
 62
     0
370
    -2
100
AcDbLine
 10
536.9689514079074
 20
-69.03846685750659
 30
0.0
 11
536.9689514079074
 21
-77.38247128673515
 31
0.0
  0
LINE
  5
2569
330
2565
100
AcDbEntity
  8
Bemaßung
 62
     0
370
    -2
100
AcDbLine
 10
496.9689514079076
 20
-76.13247128673515
 30
0.0
 11
536.9689514079074
 21
-76.13247128673515
 31
0.0
  0
INSERT
  5
256A
330
2565
100
AcDbEntity
  8
Bemaßung
 62
     0
370
    -2
100
AcDbBlockReference
  2
_Oblique
 10
496.9689514079076
 20
-76.13247128673515
 30
0.0
 41
2.5
 42
2.5
 43
2.5
 50
180.0
  0
INSERT
  5
256B
330
2565
100
AcDbEntity
  8
Bemaßung
 62
     0
370
    -2
100
AcDbBlockReference
  2
_Oblique
 10
536.9689514079074
 20
-76.13247128673515
 30
0.0
 41
2.5
 42
2.5
 43
2.5
  0
MTEXT
  5
256C
330
2565
100
AcDbEntity
  8
Bemaßung
 62
     0
100
AcDbMText
 10
516.9689514079075
 20
-74.25747128673515
 30
0.0
 40
2.5
 41
0.0
 71
     5
 72
     1
  1
0-40
  7
RomanS
 73
     1
 44
1.0
1001
ACAD
1000
MTEXTBEGIN
1070
    73
1070
     1
1070
    44
1040
1.0
1070
    74
1070
     0
1000
MTEXTEND
  0
POINT
  5
256D
330
2565
100
AcDbEntity
  8
Defpoints
 62
     0
100
AcDbPoint
 10
496.9689514079076
 20
-68.41346685750659
 30
0.0
  0
POINT
  5
256E
330
2565
100
AcDbEntity
  8
Defpoints
 62
     0
100
AcDbPoint
 10
536.9689514079074
 20
-68.41346685750659
 30
0.0
  0
POINT
  5
256F
330
2565
100
AcDbEntity
  8
Defpoints
 62
     0
100
AcDbPoint
 10
536.9689514079074
 20
-76.13247128673515
 30
0.0
  0
ENDBLK
  5
2570
330
2565
100
AcDbEntity
  8
0
100
AcDbBlockEnd
  0
BLOCK
  5
260E
330
2604
100
AcDbEntity
  8
0
 62
     5
100
AcDbBlockBegin
  2
*D23
 70
     1
 10
0.0
 20
0.0
 30
0.0
  3
*D23
  1

  0
LINE
  5
2700
330
2604
100
AcDbEntity
  8
Bemaßung
 62
     0
370
    -2
100
AcDbLine
 10
447.8316697829105
 20
-124.9447257298653
 30
0.0
 11
440.4897193856481
 21
-124.9447257298653
 31
0.0
  0
LINE
  5
2701
330
2604
100
AcDbEntity
  8
Bemaßung
 62
     0
370
    -2
100
AcDbLine
 10
447.8316697829105
 20
-84.94472572986536
 30
0.0
 11
440.4897193856481
 21
-84.94472572986536
 31
0.0
  0
LINE
  5
2702
330
2604
100
AcDbEntity
  8
Bemaßung
 62
     0
370
    -2
100
AcDbLine
 10
441.7397193856479
 20
-124.9447257298653
 30
0.0
 11
441.7397193856479
 21
-84.94472572986536
 31
0.0
  0
INSERT
  5
2703
330
2604
100
AcDbEntity
  8
Bemaßung
 62
     0
370
    -2
100
AcDbBlockReference
  2
_Oblique
 10
441.7397193856479
 20
-124.9447257298653
 30
0.0
 41
2.5
 42
2.5
 43
2.5
 50
270.0
  0
INSERT
  5
2704
330
2604
100
AcDbEntity
  8
Bemaßung
 62
     0
370
    -2
100
AcDbBlockReference
  2
_Oblique
 10
441.7397193856479
 20
-84.94472572986536
 30
0.0
 41
2.5
 42
2.5
 43
2.5
 50
90.0
  0
MTEXT
  5
2705
330
2604
100
AcDbEntity
  8
Bemaßung
 62
     0
100
AcDbMText
 10
439.8647193856477
 20
-104.9447257298653
 30
0.0
 40
2.5
 41
0.0
 71
     5
 72
     1
  1
0-40
  7
RomanS
 11
0.0000000000000001
 21
1.0
 31
0.0
 73
     1
 44
1.0
1001
ACAD
1000
MTEXTBEGIN
1070
    73
1070
     1
1070
    44
1040
1.0
1070
    74
1070
     0
1000
MTEXTEND
  0
POINT
  5
2706
330
2604
100
AcDbEntity
  8
Defpoints
 62
     0
100
AcDbPoint
 10
448.4566697829102
 20
-124.9447257298653
 30
0.0
  0
POINT
  5
2707
330
2604
100
AcDbEntity
  8
Defpoints
 62
     0
100
AcDbPoint
 10
448.4566697829102
 20
-84.94472572986536
 30
0.0
  0
POINT
  5
2708
330
2604
100
AcDbEntity
  8
Defpoints
 62
     0
100
AcDbPoint
 10
441.7397193856479
 20
-84.94472572986536
 30
0.0
  0
ENDBLK
  5
260F
330
2604
100
AcDbEntity
  8
0
 62
     5
100
AcDbBlockEnd
  0
BLOCK
  5
261A
330
2610
100
AcDbEntity
  8
0
 62
     5
100
AcDbBlockBegin
  2
*D24
 70
     1
 10
0.0
 20
0.0
 30
0.0
  3
*D24
  1

  0
LINE
  5
2709
330
2610
100
AcDbEntity
  8
Bemaßung
 62
     0
370
    -2
100
AcDbLine
 10
488.4566697829101
 20
-125.5697257298653
 30
0.0
 11
488.4566697829101
 21
-133.9137301590939
 31
0.0
  0
LINE
  5
270A
330
2610
100
AcDbEntity
  8
Bemaßung
 62
     0
370
    -2
100
AcDbLine
 10
448.4566697829102
 20
-125.5697257298653
 30
0.0
 11
448.4566697829102
 21
-133.9137301590939
 31
0.0
  0
LINE
  5
270B
330
2610
100
AcDbEntity
  8
Bemaßung
 62
     0
370
    -2
100
AcDbLine
 10
488.4566697829101
 20
-132.6637301590939
 30
0.0
 11
448.4566697829102
 21
-132.6637301590939
 31
0.0
  0
INSERT
  5
270C
330
2610
100
AcDbEntity
  8
Bemaßung
 62
     0
370
    -2
100
AcDbBlockReference
  2
_Oblique
 10
488.4566697829101
 20
-132.6637301590939
 30
0.0
 41
2.5
 42
2.5
 43
2.5
  0
INSERT
  5
270D
330
2610
100
AcDbEntity
  8
Bemaßung
 62
     0
370
    -2
100
AcDbBlockReference
  2
_Oblique
 10
448.4566697829102
 20
-132.6637301590939
 30
0.0
 41
2.5
 42
2.5
 43
2.5
 50
180.0
  0
MTEXT
  5
270E
330
2610
100
AcDbEntity
  8
Bemaßung
 62
     0
100
AcDbMText
 10
468.4566697829104
 20
-130.7887301590939
 30
0.0
 40
2.5
 41
0.0
 71
     5
 72
     1
  1
0-40
  7
RomanS
 73
     1
 44
1.0
1001
ACAD
1000
MTEXTBEGIN
1070
    73
1070
     1
1070
    44
1040
1.0
1070
    74
1070
     0
1000
MTEXTEND
  0
POINT
  5
270F
330
2610
100
AcDbEntity
  8
Defpoints
 62
     0
100
AcDbPoint
 10
488.4566697829101
 20
-124.9447257298653
 30
0.0
  0
POINT
  5
2710
330
2610
100
AcDbEntity
  8
Defpoints
 62
     0
100
AcDbPoint
 10
448.4566697829102
 20
-124.9447257298653
 30
0.0
  0
POINT
  5
2711
330
2610
100
AcDbEntity
  8
Defpoints
 62
     0
100
AcDbPoint
 10
448.4566697829102
 20
-132.6637301590939
 30
0.0
  0
ENDBLK
  5
261B
330
2610
100
AcDbEntity
  8
0
 62
     5
100
AcDbBlockEnd
  0
BLOCK
  5
2626
330
261C
100
AcDbEntity
  8
0
 62
     5
100
AcDbBlockBegin
  2
*D25
 70
     1
 10
0.0
 20
0.0
 30
0.0
  3
*D25
  1

  0
LINE
  5
2712
330
261C
100
AcDbEntity
  8
Bemaßung
 62
     0
370
    -2
100
AcDbLine
 10
547.8316697829106
 20
-124.9447257298653
 30
0.0
 11
540.4897193856481
 21
-124.9447257298653
 31
0.0
  0
LINE
  5
2713
330
261C
100
AcDbEntity
  8
Bemaßung
 62
     0
370
    -2
100
AcDbLine
 10
547.8316697829106
 20
-84.94472572986536
 30
0.0
 11
540.4897193856481
 21
-84.94472572986534
 31
0.0
  0
LINE
  5
2714
330
261C
100
AcDbEntity
  8
Bemaßung
 62
     0
370
    -2
100
AcDbLine
 10
541.7397193856478
 20
-124.9447257298653
 30
0.0
 11
541.7397193856478
 21
-84.94472572986534
 31
0.0
  0
INSERT
  5
2715
330
261C
100
AcDbEntity
  8
Bemaßung
 62
     0
370
    -2
100
AcDbBlockReference
  2
_Oblique
 10
541.7397193856478
 20
-124.9447257298653
 30
0.0
 41
2.5
 42
2.5
 43
2.5
 50
270.0
  0
INSERT
  5
2716
330
261C
100
AcDbEntity
  8
Bemaßung
 62
     0
370
    -2
100
AcDbBlockReference
  2
_Oblique
 10
541.7397193856478
 20
-84.94472572986534
 30
0.0
 41
2.5
 42
2.5
 43
2.5
 50
90.0
  0
MTEXT
  5
2717
330
261C
100
AcDbEntity
  8
Bemaßung
 62
     0
100
AcDbMText
 10
539.8647193856478
 20
-104.9447257298652
 30
0.0
 40
2.5
 41
0.0
 71
     5
 72
     1
  1
0-40
  7
RomanS
 11
0.0000000000000001
 21
1.0
 31
0.0
 73
     1
 44
1.0
1001
ACAD
1000
MTEXTBEGIN
1070
    73
1070
     1
1070
    44
1040
1.0
1070
    74
1070
     0
1000
MTEXTEND
  0
POINT
  5
2718
330
261C
100
AcDbEntity
  8
Defpoints
 62
     0
100
AcDbPoint
 10
548.4566697829103
 20
-124.9447257298653
 30
0.0
  0
POINT
  5
2719
330
261C
100
AcDbEntity
  8
Defpoints
 62
     0
100
AcDbPoint
 10
548.4566697829103
 20
-84.94472572986536
 30
0.0
  0
POINT
  5
271A
330
261C
100
AcDbEntity
  8
Defpoints
 62
     0
100
AcDbPoint
 10
541.7397193856478
 20
-84.94472572986534
 30
0.0
  0
ENDBLK
  5
2627
330
261C
100
AcDbEntity
  8
0
 62
     5
100
AcDbBlockEnd
  0
BLOCK
  5
2632
330
2628
100
AcDbEntity
  8
0
 62
     5
100
AcDbBlockBegin
  2
*D26
 70
     1
 10
0.0
 20
0.0
 30
0.0
  3
*D26
  1

  0
LINE
  5
271B
330
2628
100
AcDbEntity
  8
Bemaßung
 62
     0
370
    -2
100
AcDbLine
 10
588.4566697829102
 20
-125.5697257298653
 30
0.0
 11
588.4566697829102
 21
-130.9917279444796
 31
0.0
  0
LINE
  5
271C
330
2628
100
AcDbEntity
  8
Bemaßung
 62
     0
370
    -2
100
AcDbLine
 10
548.4566697829103
 20
-125.5697257298653
 30
0.0
 11
548.4566697829103
 21
-130.9917279444796
 31
0.0
  0
LINE
  5
271D
330
2628
100
AcDbEntity
  8
Bemaßung
 62
     0
370
    -2
100
AcDbLine
 10
588.4566697829102
 20
-129.7417279444796
 30
0.0
 11
548.4566697829103
 21
-129.7417279444796
 31
0.0
  0
INSERT
  5
271E
330
2628
100
AcDbEntity
  8
Bemaßung
 62
     0
370
    -2
100
AcDbBlockReference
  2
_Oblique
 10
588.4566697829102
 20
-129.7417279444796
 30
0.0
 41
2.5
 42
2.5
 43
2.5
  0
INSERT
  5
271F
330
2628
100
AcDbEntity
  8
Bemaßung
 62
     0
370
    -2
100
AcDbBlockReference
  2
_Oblique
 10
548.4566697829103
 20
-129.7417279444796
 30
0.0
 41
2.5
 42
2.5
 43
2.5
 50
180.0
  0
MTEXT
  5
2720
330
2628
100
AcDbEntity
  8
Bemaßung
 62
     0
100
AcDbMText
 10
568.4566697829104
 20
-127.8667279444796
 30
0.0
 40
2.5
 41
0.0
 71
     5
 72
     1
  1
0-40
  7
RomanS
 73
     1
 44
1.0
1001
ACAD
1000
MTEXTBEGIN
1070
    73
1070
     1
1070
    44
1040
1.0
1070
    74
1070
     0
1000
MTEXTEND
  0
POINT
  5
2721
330
2628
100
AcDbEntity
  8
Defpoints
 62
     0
100
AcDbPoint
 10
588.4566697829102
 20
-124.9447257298653
 30
0.0
  0
POINT
  5
2722
330
2628
100
AcDbEntity
  8
Defpoints
 62
     0
100
AcDbPoint
 10
548.4566697829103
 20
-124.9447257298653
 30
0.0
  0
POINT
  5
2723
330
2628
100
AcDbEntity
  8
Defpoints
 62
     0
100
AcDbPoint
 10
548.4566697829103
 20
-129.7417279444796
 30
0.0
  0
ENDBLK
  5
2633
330
2628
100
AcDbEntity
  8
0
 62
     5
100
AcDbBlockEnd
  0
BLOCK
  5
263E
330
2634
100
AcDbEntity
  8
0
 62
     5
100
AcDbBlockBegin
  2
*D27
 70
     1
 10
0.0
 20
0.0
 30
0.0
  3
*D27
  1

  0
LINE
  5
27A4
330
2634
100
AcDbEntity
  8
Bemaßung
 62
     0
370
    -2
100
AcDbLine
 10
627.0816697829105
 20
-124.9447257298653
 30
0.0
 11
634.4236201801727
 21
-124.9447257298653
 31
0.0
  0
LINE
  5
27A5
330
2634
100
AcDbEntity
  8
Bemaßung
 62
     0
370
    -2
100
AcDbLine
 10
627.0816697829105
 20
-84.94472572986536
 30
0.0
 11
634.4236201801727
 21
-84.94472572986536
 31
0.0
  0
LINE
  5
27A6
330
2634
100
AcDbEntity
  8
Bemaßung
 62
     0
370
    -2
100
AcDbLine
 10
633.1736201801727
 20
-124.9447257298653
 30
0.0
 11
633.1736201801727
 21
-84.94472572986536
 31
0.0
  0
INSERT
  5
27A7
330
2634
100
AcDbEntity
  8
Bemaßung
 62
     0
370
    -2
100
AcDbBlockReference
  2
_Oblique
 10
633.1736201801727
 20
-124.9447257298653
 30
0.0
 41
2.5
 42
2.5
 43
2.5
 50
270.0
  0
INSERT
  5
27A8
330
2634
100
AcDbEntity
  8
Bemaßung
 62
     0
370
    -2
100
AcDbBlockReference
  2
_Oblique
 10
633.1736201801727
 20
-84.94472572986536
 30
0.0
 41
2.5
 42
2.5
 43
2.5
 50
90.0
  0
MTEXT
  5
27A9
330
2634
100
AcDbEntity
  8
Bemaßung
 62
     0
100
AcDbMText
 10
631.2986201801727
 20
-104.9447257298652
 30
0.0
 40
2.5
 41
0.0
 71
     5
 72
     1
  1
0-40
  7
RomanS
 11
0.0000000000000001
 21
1.0
 31
0.0
 73
     1
 44
1.0
1001
ACAD
1000
MTEXTBEGIN
1070
    73
1070
     1
1070
    44
1040
1.0
1070
    74
1070
     0
1000
MTEXTEND
  0
POINT
  5
27AA
330
2634
100
AcDbEntity
  8
Defpoints
 62
     0
100
AcDbPoint
 10
626.4566697829105
 20
-124.9447257298653
 30
0.0
  0
POINT
  5
27AB
330
2634
100
AcDbEntity
  8
Defpoints
 62
     0
100
AcDbPoint
 10
626.4566697829105
 20
-84.94472572986536
 30
0.0
  0
POINT
  5
27AC
330
2634
100
AcDbEntity
  8
Defpoints
 62
     0
100
AcDbPoint
 10
633.1736201801727
 20
-84.94472572986536
 30
0.0
  0
ENDBLK
  5
263F
330
2634
100
AcDbEntity
  8
0
 62
     5
100
AcDbBlockEnd
  0
BLOCK
  5
264A
330
2640
100
AcDbEntity
  8
0
 62
     5
100
AcDbBlockBegin
  2
*D28
 70
     1
 10
0.0
 20
0.0
 30
0.0
  3
*D28
  1

  0
LINE
  5
279B
330
2640
100
AcDbEntity
  8
Bemaßung
 62
     0
370
    -2
100
AcDbLine
 10
576.4566697829105
 20
-132.4952486765309
 30
0.0
 11
576.4566697829105
 21
-137.0372652135858
 31
0.0
  0
LINE
  5
279C
330
2640
100
AcDbEntity
  8
Bemaßung
 62
     0
370
    -2
100
AcDbLine
 10
626.4566697829105
 20
-127.7036491047528
 30
0.0
 11
626.4566697829105
 21
-137.0372652135858
 31
0.0
  0
LINE
  5
279D
330
2640
100
AcDbEntity
  8
Bemaßung
 62
     0
370
    -2
100
AcDbLine
 10
576.4566697829105
 20
-135.7872652135858
 30
0.0
 11
626.4566697829105
 21
-135.7872652135858
 31
0.0
  0
INSERT
  5
279E
330
2640
100
AcDbEntity
  8
Bemaßung
 62
     0
370
    -2
100
AcDbBlockReference
  2
_Oblique
 10
576.4566697829105
 20
-135.7872652135858
 30
0.0
 41
2.5
 42
2.5
 43
2.5
 50
180.0
  0
INSERT
  5
279F
330
2640
100
AcDbEntity
  8
Bemaßung
 62
     0
370
    -2
100
AcDbBlockReference
  2
_Oblique
 10
626.4566697829105
 20
-135.7872652135858
 30
0.0
 41
2.5
 42
2.5
 43
2.5
  0
MTEXT
  5
27A0
330
2640
100
AcDbEntity
  8
Bemaßung
 62
     0
100
AcDbMText
 10
601.4566697829105
 20
-133.9122652135858
 30
0.0
 40
2.5
 41
0.0
 71
     5
 72
     1
  1
0-40
  7
RomanS
 73
     1
 44
1.0
1001
ACAD
1000
MTEXTBEGIN
1070
    73
1070
     1
1070
    44
1040
1.0
1070
    74
1070
     0
1000
MTEXTEND
  0
POINT
  5
27A1
330
2640
100
AcDbEntity
  8
Defpoints
 62
     0
100
AcDbPoint
 10
576.4566697829105
 20
-131.8702486765308
 30
0.0
  0
POINT
  5
27A2
330
2640
100
AcDbEntity
  8
Defpoints
 62
     0
100
AcDbPoint
 10
626.4566697829105
 20
-127.0786491047528
 30
0.0
  0
POINT
  5
27A3
330
2640
100
AcDbEntity
  8
Defpoints
 62
     0
100
AcDbPoint
 10
626.4566697829105
 20
-135.7872652135858
 30
0.0
  0
ENDBLK
  5
264B
330
2640
100
AcDbEntity
  8
0
 62
     5
100
AcDbBlockEnd
  0
BLOCK
  5
2656
330
264C
100
AcDbEntity
  8
0
 62
     5
100
AcDbBlockBegin
  2
*D29
 70
     1
 10
0.0
 20
0.0
 30
0.0
  3
*D29
  1

  0
LINE
  5
2792
330
264C
100
AcDbEntity
  8
Bemaßung
 62
     0
370
    -2
100
AcDbLine
 10
649.0816697829106
 20
-124.9447257298653
 30
0.0
 11
652.9897193856482
 21
-124.9447257298653
 31
0.0
  0
LINE
  5
2793
330
264C
100
AcDbEntity
  8
Bemaßung
 62
     0
370
    -2
100
AcDbLine
 10
649.0816697829106
 20
-84.94472572986536
 30
0.0
 11
652.9897193856482
 21
-84.94472572986536
 31
0.0
  0
LINE
  5
2794
330
264C
100
AcDbEntity
  8
Bemaßung
 62
     0
370
    -2
100
AcDbLine
 10
651.7397193856482
 20
-124.9447257298653
 30
0.0
 11
651.7397193856482
 21
-84.94472572986536
 31
0.0
  0
INSERT
  5
2795
330
264C
100
AcDbEntity
  8
Bemaßung
 62
     0
370
    -2
100
AcDbBlockReference
  2
_Oblique
 10
651.7397193856482
 20
-124.9447257298653
 30
0.0
 41
2.5
 42
2.5
 43
2.5
 50
270.0
  0
INSERT
  5
2796
330
264C
100
AcDbEntity
  8
Bemaßung
 62
     0
370
    -2
100
AcDbBlockReference
  2
_Oblique
 10
651.7397193856482
 20
-84.94472572986536
 30
0.0
 41
2.5
 42
2.5
 43
2.5
 50
90.0
  0
MTEXT
  5
2797
330
264C
100
AcDbEntity
  8
Bemaßung
 62
     0
100
AcDbMText
 10
649.8647193856482
 20
-104.9447257298652
 30
0.0
 40
2.5
 41
0.0
 71
     5
 72
     1
  1
0-40
  7
RomanS
 11
0.0000000000000001
 21
1.0
 31
0.0
 73
     1
 44
1.0
1001
ACAD
1000
MTEXTBEGIN
1070
    73
1070
     1
1070
    44
1040
1.0
1070
    74
1070
     0
1000
MTEXTEND
  0
POINT
  5
2798
330
264C
100
AcDbEntity
  8
Defpoints
 62
     0
100
AcDbPoint
 10
648.4566697829105
 20
-124.9447257298653
 30
0.0
  0
POINT
  5
2799
330
264C
100
AcDbEntity
  8
Defpoints
 62
     0
100
AcDbPoint
 10
648.4566697829105
 20
-84.94472572986536
 30
0.0
  0
POINT
  5
279A
330
264C
100
AcDbEntity
  8
Defpoints
 62
     0
100
AcDbPoint
 10
651.7397193856482
 20
-84.94472572986536
 30
0.0
  0
ENDBLK
  5
2657
330
264C
100
AcDbEntity
  8
0
 62
     5
100
AcDbBlockEnd
  0
BLOCK
  5
2662
330
2658
100
AcDbEntity
  8
0
 62
     5
100
AcDbBlockBegin
  2
*D30
 70
     1
 10
0.0
 20
0.0
 30
0.0
  3
*D30
  1

  0
LINE
  5
273F
330
2658
100
AcDbEntity
  8
Bemaßung
 62
     0
370
    -2
100
AcDbLine
 10
688.4566697829103
 20
-125.5697257298653
 30
0.0
 11
688.4566697829103
 21
-133.9137301590939
 31
0.0
  0
LINE
  5
2740
330
2658
100
AcDbEntity
  8
Bemaßung
 62
     0
370
    -2
100
AcDbLine
 10
648.4566697829105
 20
-125.5697257298653
 30
0.0
 11
648.4566697829105
 21
-133.9137301590939
 31
0.0
  0
LINE
  5
2741
330
2658
100
AcDbEntity
  8
Bemaßung
 62
     0
370
    -2
100
AcDbLine
 10
688.4566697829103
 20
-132.6637301590939
 30
0.0
 11
648.4566697829105
 21
-132.6637301590939
 31
0.0
  0
INSERT
  5
2742
330
2658
100
AcDbEntity
  8
Bemaßung
 62
     0
370
    -2
100
AcDbBlockReference
  2
_Oblique
 10
688.4566697829103
 20
-132.6637301590939
 30
0.0
 41
2.5
 42
2.5
 43
2.5
  0
INSERT
  5
2743
330
2658
100
AcDbEntity
  8
Bemaßung
 62
     0
370
    -2
100
AcDbBlockReference
  2
_Oblique
 10
648.4566697829105
 20
-132.6637301590939
 30
0.0
 41
2.5
 42
2.5
 43
2.5
 50
180.0
  0
MTEXT
  5
2744
330
2658
100
AcDbEntity
  8
Bemaßung
 62
     0
100
AcDbMText
 10
668.4566697829104
 20
-130.7887301590939
 30
0.0
 40
2.5
 41
0.0
 71
     5
 72
     1
  1
0-40
  7
RomanS
 73
     1
 44
1.0
1001
ACAD
1000
MTEXTBEGIN
1070
    73
1070
     1
1070
    44
1040
1.0
1070
    74
1070
     0
1000
MTEXTEND
  0
POINT
  5
2745
330
2658
100
AcDbEntity
  8
Defpoints
 62
     0
100
AcDbPoint
 10
688.4566697829103
 20
-124.9447257298653
 30
0.0
  0
POINT
  5
2746
330
2658
100
AcDbEntity
  8
Defpoints
 62
     0
100
AcDbPoint
 10
648.4566697829105
 20
-124.9447257298653
 30
0.0
  0
POINT
  5
2747
330
2658
100
AcDbEntity
  8
Defpoints
 62
     0
100
AcDbPoint
 10
648.4566697829105
 20
-132.6637301590939
 30
0.0
  0
ENDBLK
  5
2663
330
2658
100
AcDbEntity
  8
0
 62
     5
100
AcDbBlockEnd
  0
BLOCK
  5
266E
330
2664
100
AcDbEntity
  8
0
 62
     5
100
AcDbBlockBegin
  2
*D31
 70
     1
 10
0.0
 20
0.0
 30
0.0
  3
*D31
  1

  0
LINE
  5
2777
330
2664
100
AcDbEntity
  8
Bemaßung
 62
     0
370
    -2
100
AcDbLine
 10
427.0816697829111
 20
-224.9447257298653
 30
0.0
 11
434.4236201801733
 21
-224.9447257298653
 31
0.0
  0
LINE
  5
2778
330
2664
100
AcDbEntity
  8
Bemaßung
 62
     0
370
    -2
100
AcDbLine
 10
427.0816697829111
 20
-184.9447257298653
 30
0.0
 11
434.4236201801733
 21
-184.9447257298653
 31
0.0
  0
LINE
  5
2779
330
2664
100
AcDbEntity
  8
Bemaßung
 62
     0
370
    -2
100
AcDbLine
 10
433.1736201801732
 20
-224.9447257298653
 30
0.0
 11
433.1736201801732
 21
-184.9447257298653
 31
0.0
  0
INSERT
  5
277A
330
2664
100
AcDbEntity
  8
Bemaßung
 62
     0
370
    -2
100
AcDbBlockReference
  2
_Oblique
 10
433.1736201801732
 20
-224.9447257298653
 30
0.0
 41
2.5
 42
2.5
 43
2.5
 50
270.0
  0
INSERT
  5
277B
330
2664
100
AcDbEntity
  8
Bemaßung
 62
     0
370
    -2
100
AcDbBlockReference
  2
_Oblique
 10
433.1736201801732
 20
-184.9447257298653
 30
0.0
 41
2.5
 42
2.5
 43
2.5
 50
90.0
  0
MTEXT
  5
277C
330
2664
100
AcDbEntity
  8
Bemaßung
 62
     0
100
AcDbMText
 10
431.2986201801733
 20
-204.9447257298653
 30
0.0
 40
2.5
 41
0.0
 71
     5
 72
     1
  1
0-40
  7
RomanS
 11
0.0000000000000001
 21
1.0
 31
0.0
 73
     1
 44
1.0
1001
ACAD
1000
MTEXTBEGIN
1070
    73
1070
     1
1070
    44
1040
1.0
1070
    74
1070
     0
1000
MTEXTEND
  0
POINT
  5
277D
330
2664
100
AcDbEntity
  8
Defpoints
 62
     0
100
AcDbPoint
 10
426.4566697829111
 20
-224.9447257298653
 30
0.0
  0
POINT
  5
277E
330
2664
100
AcDbEntity
  8
Defpoints
 62
     0
100
AcDbPoint
 10
426.4566697829111
 20
-184.9447257298653
 30
0.0
  0
POINT
  5
277F
330
2664
100
AcDbEntity
  8
Defpoints
 62
     0
100
AcDbPoint
 10
433.1736201801732
 20
-184.9447257298653
 30
0.0
  0
ENDBLK
  5
266F
330
2664
100
AcDbEntity
  8
0
 62
     5
100
AcDbBlockEnd
  0
BLOCK
  5
267A
330
2670
100
AcDbEntity
  8
0
 62
     5
100
AcDbBlockBegin
  2
*D32
 70
     1
 10
0.0
 20
0.0
 30
0.0
  3
*D32
  1

  0
LINE
  5
276E
330
2670
100
AcDbEntity
  8
Bemaßung
 62
     0
370
    -2
100
AcDbLine
 10
386.4566697829114
 20
-225.5697257298654
 30
0.0
 11
386.4566697829114
 21
-233.9137301590939
 31
0.0
  0
LINE
  5
276F
330
2670
100
AcDbEntity
  8
Bemaßung
 62
     0
370
    -2
100
AcDbLine
 10
426.4566697829111
 20
-225.5697257298654
 30
0.0
 11
426.4566697829111
 21
-233.9137301590939
 31
0.0
  0
LINE
  5
2770
330
2670
100
AcDbEntity
  8
Bemaßung
 62
     0
370
    -2
100
AcDbLine
 10
386.4566697829114
 20
-232.6637301590939
 30
0.0
 11
426.4566697829111
 21
-232.6637301590939
 31
0.0
  0
INSERT
  5
2771
330
2670
100
AcDbEntity
  8
Bemaßung
 62
     0
370
    -2
100
AcDbBlockReference
  2
_Oblique
 10
386.4566697829114
 20
-232.6637301590939
 30
0.0
 41
2.5
 42
2.5
 43
2.5
 50
180.0
  0
INSERT
  5
2772
330
2670
100
AcDbEntity
  8
Bemaßung
 62
     0
370
    -2
100
AcDbBlockReference
  2
_Oblique
 10
426.4566697829111
 20
-232.6637301590939
 30
0.0
 41
2.5
 42
2.5
 43
2.5
  0
MTEXT
  5
2773
330
2670
100
AcDbEntity
  8
Bemaßung
 62
     0
100
AcDbMText
 10
406.4566697829111
 20
-230.7887301590939
 30
0.0
 40
2.5
 41
0.0
 71
     5
 72
     1
  1
0-40
  7
RomanS
 73
     1
 44
1.0
1001
ACAD
1000
MTEXTBEGIN
1070
    73
1070
     1
1070
    44
1040
1.0
1070
    74
1070
     0
1000
MTEXTEND
  0
POINT
  5
2774
330
2670
100
AcDbEntity
  8
Defpoints
 62
     0
100
AcDbPoint
 10
386.4566697829114
 20
-224.9447257298653
 30
0.0
  0
POINT
  5
2775
330
2670
100
AcDbEntity
  8
Defpoints
 62
     0
100
AcDbPoint
 10
426.4566697829111
 20
-224.9447257298653
 30
0.0
  0
POINT
  5
2776
330
2670
100
AcDbEntity
  8
Defpoints
 62
     0
100
AcDbPoint
 10
426.4566697829111
 20
-232.6637301590939
 30
0.0
  0
ENDBLK
  5
267B
330
2670
100
AcDbEntity
  8
0
 62
     5
100
AcDbBlockEnd
  0
BLOCK
  5
2686
330
267C
100
AcDbEntity
  8
0
 62
     5
100
AcDbBlockBegin
  2
*D33
 70
     1
 10
0.0
 20
0.0
 30
0.0
  3
*D33
  1

  0
LINE
  5
2789
330
267C
100
AcDbEntity
  8
Bemaßung
 62
     0
370
    -2
100
AcDbLine
 10
427.0816697829105
 20
-124.9447257298653
 30
0.0
 11
434.4236201801726
 21
-124.9447257298653
 31
0.0
  0
LINE
  5
278A
330
267C
100
AcDbEntity
  8
Bemaßung
 62
     0
370
    -2
100
AcDbLine
 10
427.0816697829105
 20
-84.94472572986536
 30
0.0
 11
434.4236201801726
 21
-84.94472572986536
 31
0.0
  0
LINE
  5
278B
330
267C
100
AcDbEntity
  8
Bemaßung
 62
     0
370
    -2
100
AcDbLine
 10
433.1736201801726
 20
-124.9447257298653
 30
0.0
 11
433.1736201801726
 21
-84.94472572986536
 31
0.0
  0
INSERT
  5
278C
330
267C
100
AcDbEntity
  8
Bemaßung
 62
     0
370
    -2
100
AcDbBlockReference
  2
_Oblique
 10
433.1736201801726
 20
-124.9447257298653
 30
0.0
 41
2.5
 42
2.5
 43
2.5
 50
270.0
  0
INSERT
  5
278D
330
267C
100
AcDbEntity
  8
Bemaßung
 62
     0
370
    -2
100
AcDbBlockReference
  2
_Oblique
 10
433.1736201801726
 20
-84.94472572986536
 30
0.0
 41
2.5
 42
2.5
 43
2.5
 50
90.0
  0
MTEXT
  5
278E
330
267C
100
AcDbEntity
  8
Bemaßung
 62
     0
100
AcDbMText
 10
431.2986201801726
 20
-104.9447257298653
 30
0.0
 40
2.5
 41
0.0
 71
     5
 72
     1
  1
0-40
  7
RomanS
 11
0.0000000000000001
 21
1.0
 31
0.0
 73
     1
 44
1.0
1001
ACAD
1000
MTEXTBEGIN
1070
    73
1070
     1
1070
    44
1040
1.0
1070
    74
1070
     0
1000
MTEXTEND
  0
POINT
  5
278F
330
267C
100
AcDbEntity
  8
Defpoints
 62
     0
100
AcDbPoint
 10
426.4566697829105
 20
-124.9447257298653
 30
0.0
  0
POINT
  5
2790
330
267C
100
AcDbEntity
  8
Defpoints
 62
     0
100
AcDbPoint
 10
426.4566697829105
 20
-84.94472572986536
 30
0.0
  0
POINT
  5
2791
330
267C
100
AcDbEntity
  8
Defpoints
 62
     0
100
AcDbPoint
 10
433.1736201801726
 20
-84.94472572986536
 30
0.0
  0
ENDBLK
  5
2687
330
267C
100
AcDbEntity
  8
0
 62
     5
100
AcDbBlockEnd
  0
BLOCK
  5
2692
330
2688
100
AcDbEntity
  8
0
 62
     5
100
AcDbBlockBegin
  2
*D34
 70
     1
 10
0.0
 20
0.0
 30
0.0
  3
*D34
  1

  0
LINE
  5
2780
330
2688
100
AcDbEntity
  8
Bemaßung
 62
     0
370
    -2
100
AcDbLine
 10
386.4566697829109
 20
-125.5697257298653
 30
0.0
 11
386.4566697829109
 21
-133.9137301590939
 31
0.0
  0
LINE
  5
2781
330
2688
100
AcDbEntity
  8
Bemaßung
 62
     0
370
    -2
100
AcDbLine
 10
426.4566697829105
 20
-125.5697257298653
 30
0.0
 11
426.4566697829105
 21
-133.9137301590939
 31
0.0
  0
LINE
  5
2782
330
2688
100
AcDbEntity
  8
Bemaßung
 62
     0
370
    -2
100
AcDbLine
 10
386.4566697829109
 20
-132.6637301590939
 30
0.0
 11
426.4566697829105
 21
-132.6637301590939
 31
0.0
  0
INSERT
  5
2783
330
2688
100
AcDbEntity
  8
Bemaßung
 62
     0
370
    -2
100
AcDbBlockReference
  2
_Oblique
 10
386.4566697829109
 20
-132.6637301590939
 30
0.0
 41
2.5
 42
2.5
 43
2.5
 50
180.0
  0
INSERT
  5
2784
330
2688
100
AcDbEntity
  8
Bemaßung
 62
     0
370
    -2
100
AcDbBlockReference
  2
_Oblique
 10
426.4566697829105
 20
-132.6637301590939
 30
0.0
 41
2.5
 42
2.5
 43
2.5
  0
MTEXT
  5
2785
330
2688
100
AcDbEntity
  8
Bemaßung
 62
     0
100
AcDbMText
 10
406.4566697829106
 20
-130.7887301590939
 30
0.0
 40
2.5
 41
0.0
 71
     5
 72
     1
  1
0-40
  7
RomanS
 73
     1
 44
1.0
1001
ACAD
1000
MTEXTBEGIN
1070
    73
1070
     1
1070
    44
1040
1.0
1070
    74
1070
     0
1000
MTEXTEND
  0
POINT
  5
2786
330
2688
100
AcDbEntity
  8
Defpoints
 62
     0
100
AcDbPoint
 10
386.4566697829109
 20
-124.9447257298653
 30
0.0
  0
POINT
  5
2787
330
2688
100
AcDbEntity
  8
Defpoints
 62
     0
100
AcDbPoint
 10
426.4566697829105
 20
-124.9447257298653
 30
0.0
  0
POINT
  5
2788
330
2688
100
AcDbEntity
  8
Defpoints
 62
     0
100
AcDbPoint
 10
426.4566697829105
 20
-132.6637301590939
 30
0.0
  0
ENDBLK
  5
2693
330
2688
100
AcDbEntity
  8
0
 62
     5
100
AcDbBlockEnd
  0
ENDSEC
  0
SECTION
  2
ENTITIES
  0
LWPOLYLINE
  5
1F14
330
1F
100
AcDbEntity
  8
Sohlbank
100
AcDbPolyline
 90
       19
 70
     0
 43
0.0
 10
34.21185881909247
 20
69.91454154400364
 10
34.21185881909247
 20
57.31454204418978
 10
34.21185881909333
 20
55.10523857296711
 42
0.5205670505517423
 10
38.2379192490704
 20
52.28616071060938
 10
42.44059292531011
 20
53.81580883309482
 42
0.2679491924311182
 10
42.76198673015341
 20
54.19883105465419
 10
43.16798570030118
 20
56.50136563283689
 42
-0.3639702342661923
 10
43.66038957680721
 20
56.91454154400346
 10
45.71185881909332
 20
56.91454154400346
 42
-0.4142135623731546
 10
46.21185881909338
 20
56.41454154400348
 10
46.21185881909332
 20
24.91454154400361
 42
0.4142135623730962
 10
49.21185881909332
 20
21.9145415440035
 10
101.2118588190932
 20
21.9145415440035
 42
0.4142135623730966
 10
104.2118588190932
 20
24.91454154400361
 10
104.2118588190935
 20
51.91454154400346
 10
110.7118588190926
 20
51.91454154400346
 42
0.4142135623731325
 10
112.2118588190927
 20
53.41454154400363
 10
112.2118588190927
 20
53.41454154400363
 10
112.2118588190922
 20
69.91454154400362
  0
LWPOLYLINE
  5
1F1E
330
1F
100
AcDbEntity
  8
Sohlbank
100
AcDbPolyline
 90
       17
 70
     0
 43
0.0
 10
174.2118588190926
 20
69.91454154400364
 10
174.2118588190926
 20
57.31454204418978
 10
174.2118588190933
 20
54.91454154400345
 42
0.5205670505517467
 10
178.2379192490704
 20
52.09546368164581
 10
182.4405929253103
 20
53.62511180413109
 42
0.2679491924311182
 10
182.7619867301535
 20
54.0081340256906
 10
183.1679857003011
 20
56.50136563283689
 42
-0.3639702342661923
 10
183.6603895768073
 20
56.91454154400346
 10
185.7118588190933
 20
56.91454154400346
 42
-0.4142135623731546
 10
186.2118588190933
 20
56.41454154400348
 10
186.2118588190933
 20
24.91454154400361
 42
0.4142135623730962
 10
189.2118588190933
 20
21.9145415440035
 10
241.2118588190929
 20
21.9145415440035
 10
249.2118588190923
 20
21.9145415440035
 42
0.4142135623730951
 10
252.2118588190929
 20
24.91454154400361
 10
252.2118588190929
 20
58.4145415440037
 10
252.2118588190923
 20
69.91454154400362
  0
LWPOLYLINE
  5
1F27
330
1F
100
AcDbEntity
  8
0
100
AcDbPolyline
 90
        4
 70
     1
 43
0.0
 10
0.0000011707487033
 20
0.0000005697270922
 10
297.0000011707487
 20
0.0000005697270922
 10
297.0000011707487
 20
210.000000569727
 10
0.0000011707487033
 20
210.000000569727
  0
LWPOLYLINE
  5
1F28
330
1F
100
AcDbEntity
  8
0
100
AcDbPolyline
 90
        4
 70
     1
 43
0.0
 10
6.000001170748871
 20
6.000000569727093
 10
291.0000011707488
 20
6.000000569727093
 10
291.0000011707488
 20
204.000000569727
 10
6.000001170748871
 20
204.000000569727
  0
LWPOLYLINE
  5
1F2A
330
1F
100
AcDbEntity
  8
Sohlbank
100
AcDbPolyline
 90
       10
 70
     0
 43
0.0
 10
34.21185881909247
 20
152.9808310568926
 10
34.21185881909247
 20
140.3808315570788
 10
34.21185881909247
 20
136.3808315570786
 10
34.2118588190927
 20
107.9808310568925
 42
0.414213562373094
 10
37.21185881909271
 20
104.9808310568925
 10
91.21185881909276
 20
104.9808310568925
 10
109.2118588190919
 20
104.9808310568925
 42
0.4142135623730951
 10
112.2118588190927
 20
107.9808310568925
 10
112.2118588190927
 20
141.4808310568925
 10
112.2118588190922
 20
152.9808310568926
  0
LWPOLYLINE
  5
1F34
330
1F
100
AcDbEntity
  8
Sohlbank
100
AcDbPolyline
 90
       12
 70
     0
 43
0.0
 10
174.2118588190926
 20
152.9808310568926
 10
174.2118588190926
 20
140.3808315570788
 10
174.2118588190926
 20
136.3808315570786
 10
174.2118588190926
 20
107.9808310568925
 42
0.414213562373094
 10
177.2118588190926
 20
104.9808310568925
 10
241.2118588190932
 20
104.9808310568925
 42
0.4142135623730966
 10
244.2118588190932
 20
107.9808310568925
 10
244.2118588190936
 20
134.9808310568925
 10
250.7118588190929
 20
134.9808310568925
 42
0.4142135623731325
 10
252.2118588190929
 20
136.4808310568926
 10
252.2118588190929
 20
136.4808310568926
 10
252.2118588190923
 20
152.9808310568926
  0
DIMENSION
  5
1F41
330
1F
100
AcDbEntity
  8
Bemaßung
100
AcDbDimension
  2
*D1
 10
174.2118588190933
 20
48.34042009642089
 30
0.0
 11
180.2118588190933
 21
50.21542009642089
 31
0.0
 70
    32
 71
     5
 42
12.0
  3
IDEAL Holz
100
AcDbAlignedDimension
 13
186.2118588190933
 23
48.34042009642089
 33
0.0
 14
174.2118588190933
 24
48.34042009642089
 34
0.0
100
AcDbRotatedDimension
  0
DIMENSION
  5
1F42
330
1F
100
AcDbEntity
  8
Bemaßung
100
AcDbDimension
  2
*D2
 10
168.52296860646
 20
21.9145415440035
 30
0.0
 11
166.64796860646
 21
36.9145415440035
 31
0.0
 70
    32
 71
     5
 42
29.99999999999995
  3
IDEAL Holz
100
AcDbAlignedDimension
 13
171.9299137127768
 23
51.91454154400346
 33
0.0
 14
172.3492408363336
 24
21.9145415440035
 34
0.0
 50
90.0
100
AcDbRotatedDimension
  0
DIMENSION
  5
1F43
330
1F
100
AcDbEntity
  8
Bemaßung
100
AcDbDimension
  2
*D3
 10
162.9307249429755
 20
56.91454154400346
 30
0.0
 11
161.0557249429756
 21
39.4145415440035
 31
0.0
 70
    32
 71
     5
 42
34.99999999999995
  3
IDEAL Holz
100
AcDbAlignedDimension
 13
168.52296860646
 23
21.9145415440035
 33
0.0
 14
171.2700363348077
 24
56.91454154400346
 34
0.0
 50
90.0
100
AcDbRotatedDimension
  0
DIMENSION
  5
1F44
330
1F
100
AcDbEntity
  8
Bemaßung
100
AcDbDimension
  2
*D4
 10
34.21185881909333
 20
48.34042009642089
 30
0.0
 11
40.21185881909334
 21
50.21542009642089
 31
0.0
 70
    32
 71
     5
 42
12.00000000000005
  3
IDEAL Holz
100
AcDbAlignedDimension
 13
46.21185881909338
 23
48.34042009642089
 33
0.0
 14
34.21185881909333
 24
48.34042009642089
 34
0.0
100
AcDbRotatedDimension
  0
DIMENSION
  5
1F45
330
1F
100
AcDbEntity
  8
Bemaßung
100
AcDbDimension
  2
*D5
 10
28.52296860646038
 20
21.9145415440035
 30
0.0
 11
26.64796860646038
 21
36.91454154400349
 31
0.0
 70
    32
 71
     5
 42
29.99999999999996
  3
IDEAL Holz
100
AcDbAlignedDimension
 13
31.92991371277691
 23
51.91454154400346
 33
0.0
 14
32.34924083633359
 24
21.9145415440035
 34
0.0
 50
90.0
100
AcDbRotatedDimension
  0
DIMENSION
  5
1F46
330
1F
100
AcDbEntity
  8
Bemaßung
100
AcDbDimension
  2
*D6
 10
22.93072494297536
 20
56.91454154400346
 30
0.0
 11
21.05572494297535
 21
39.41454154400349
 31
0.0
 70
    32
 71
     5
 42
34.99999999999996
  3
IDEAL Holz
100
AcDbAlignedDimension
 13
28.52296860646038
 23
21.9145415440035
 33
0.0
 14
31.27003633480774
 24
56.91454154400346
 34
0.0
 50
90.0
100
AcDbRotatedDimension
  0
DIMENSION
  5
1F47
330
1F
100
AcDbEntity
  8
Bemaßung
100
AcDbDimension
  2
*D7
 10
104.2118588190935
 20
48.07334437716
 30
0.0
 11
108.211858819093
 21
49.94834437716
 31
0.0
 70
    32
 71
     5
 42
7.99999999999903
  3
IDEAL Holz
100
AcDbAlignedDimension
 13
112.2118588190926
 23
53.41454154400363
 33
0.0
 14
104.2118588190935
 24
49.86786286216812
 34
0.0
100
AcDbRotatedDimension
  0
DIMENSION
  5
1F48
330
1F
100
AcDbEntity
  8
Bemaßung
100
AcDbDimension
  2
*D8
 10
121.783573847566
 20
21.9145415440035
 30
0.0
 11
119.908573847566
 21
36.9145415440035
 31
0.0
 70
    32
 71
     5
 42
29.99999999999996
  3
IDEAL Holz
100
AcDbAlignedDimension
 13
115.6234758237887
 23
51.91454154400346
 33
0.0
 14
114.0822076559516
 24
21.9145415440035
 34
0.0
 50
90.0
100
AcDbRotatedDimension
  0
MTEXT
  5
1F49
330
1F
100
AcDbEntity
  8
0
100
AcDbMText
 10
41.39608816196564
 20
170.1001956431833
 30
0.0
 40
5.0
 41
68.54906907578879
 71
     1
 72
     5
  1
SB 0 - ohne Fräsung\Pmit Steinbankanschluss
  7
RomanS
 73
     1
 44
1.0
1001
ACAD
1000
MTEXTBEGIN
1070
    73
1070
     1
1070
    44
1040
1.0
1070
    74
1070
     0
1000
MTEXTEND
  0
MTEXT
  5
1F4A
330
1F
100
AcDbEntity
  8
0
100
AcDbMText
 10
168.524220445859
 20
172.6036273856004
 30
0.0
 40
5.0
 41
96.28965376318099
 71
     1
 72
     5
  1
SB 1 - FB-Fräsung innen\P       mit Steinbankanschluss
  7
RomanS
 73
     1
 44
1.0
1001
ACAD
1000
MTEXTBEGIN
1070
    73
1070
     1
1070
    44
1040
1.0
1070
    74
1070
     0
1000
MTEXTEND
1000
ACAD_MTEXT_DEFINED_HEIGHT_BEGIN
1070
    46
1040
13.89527648061767
1000
ACAD_MTEXT_DEFINED_HEIGHT_END
  0
MTEXT
  5
1F4B
330
1F
100
AcDbEntity
  8
0
100
AcDbMText
 10
26.75153044057525
 20
80.95277245970359
 30
0.0
 40
5.0
 41
107.6101393196304
 71
     1
 72
     5
  1
SB 2 - Fräsung innen und außen
  7
RomanS
 73
     1
 44
1.0
1001
ACAD
1000
MTEXTBEGIN
1070
    73
1070
     1
1070
    44
1040
1.0
1070
    74
1070
     0
1000
MTEXTEND
1000
ACAD_MTEXT_DEFINED_HEIGHT_BEGIN
1070
    46
1040
13.38985017550521
1000
ACAD_MTEXT_DEFINED_HEIGHT_END
  0
MTEXT
  5
1F4C
330
1F
100
AcDbEntity
  8
0
100
AcDbMText
 10
171.8363289388555
 20
81.72306972491174
 30
0.0
 40
5.0
 41
93.56262419775886
 71
     1
 72
     5
  1
SB 3 - Alubankfräsung außen
  7
RomanS
 73
     1
 44
1.0
1001
ACAD
1000
MTEXTBEGIN
1070
    73
1070
     1
1070
    44
1040
1.0
1070
    74
1070
     0
1000
MTEXTEND
1000
ACAD_MTEXT_DEFINED_HEIGHT_BEGIN
1070
    46
1040
13.11748362952676
1000
ACAD_MTEXT_DEFINED_HEIGHT_END
  0
MTEXT
  5
1F4D
102
{ACAD_XDICTIONARY
360
28CB
102
}
330
1F
100
AcDbEntity
  8
0
100
AcDbMText
 10
10.77961700888164
 20
201.6378246799756
 30
0.0
 40
5.0
 41
195.0107101860835
 71
     1
 72
     5
  1
{\fArial|b1|i0|c0|p34;Standard-Fensterbankanschl\U+00FCsse - Holzfenster IV78\P\fArial|b0|i0|c0|p34;\H0.8x;Standardfr\U+00E4sungen}
 73
     1
 44
1.0
1001
ACAD
1000
MTEXTBEGIN
1070
    73
1070
     1
1070
    44
1040
1.0
1070
    74
1070
     0
1000
MTEXTEND
1000
ACAD_MTEXT_DEFINED_HEIGHT_BEGIN
1070
    46
1040
11.02238646360934
1000
ACAD_MTEXT_DEFINED_HEIGHT_END
  0
MTEXT
  5
22AA
102
{ACAD_XDICTIONARY
360
28CD
102
}
330
1F
100
AcDbEntity
  8
0
100
AcDbMText
 10
6.903494990147177
 20
10.76514321496783
 30
0.0
 40
3.0
 41
98.32817594333187
 71
     1
 72
     5
  1
{\fArial|b0|i0|c0|p34;Zeichnung ohne Gew\U+00E4hr; \U+00C4nderungen vorbehalten}
 73
     1
 44
1.0
1001
ACAD
1000
MTEXTBEGIN
1070
    73
1070
     1
1070
    44
1040
1.0
1070
    74
1070
     0
1000
MTEXTEND
1000
ACAD_MTEXT_DEFINED_HEIGHT_BEGIN
1070
    46
1040
3.967088642823908
1000
ACAD_MTEXT_DEFINED_HEIGHT_END
  0
MTEXT
  5
22AC
330
1F
100
AcDbEntity
  8
0
100
AcDbMText
 10
246.4317432987382
 20
13.61451166224657
 30
0.0
 40
5.0
 41
44.56825787201046
 71
     1
 72
     5
  1
{\fArial|b0|i0|c0|p34;03-IV78-xx/56}
 73
     1
 44
1.0
1001
ACAD
1000
MTEXTBEGIN
1070
    73
1070
     1
1070
    44
1040
1.0
1070
    74
1070
     0
1000
MTEXTEND
1000
ACAD_MTEXT_DEFINED_HEIGHT_BEGIN
1070
    46
1040
9.819575724238347
1000
ACAD_MTEXT_DEFINED_HEIGHT_END
  0
DIMENSION
  5
233A
330
1F
100
AcDbEntity
  8
Bemaßung
100
AcDbDimension
  2
*D9
 10
244.2118588190936
 20
131.139633890049
 30
0.0
 11
248.2118588190931
 21
133.014633890049
 31
0.0
 70
    32
 71
     5
 42
7.99999999999903
  3
IDEAL Holz
100
AcDbAlignedDimension
 13
252.2118588190926
 23
136.4808310568927
 33
0.0
 14
244.2118588190936
 24
132.9341523750572
 34
0.0
100
AcDbRotatedDimension
  0
DIMENSION
  5
233B
330
1F
100
AcDbEntity
  8
Bemaßung
100
AcDbDimension
  2
*D10
 10
261.783573847566
 20
104.9808310568925
 30
0.0
 11
259.908573847566
 21
119.9808310568925
 31
0.0
 70
    32
 71
     5
 42
29.99999999999996
  3
IDEAL Holz
100
AcDbAlignedDimension
 13
255.6234758237887
 23
134.9808310568925
 33
0.0
 14
254.0822076559516
 24
104.9808310568925
 34
0.0
 50
90.0
100
AcDbRotatedDimension
  0
LINE
  5
2389
330
1F
100
AcDbEntity
  8
Schraffur
 62
     5
100
AcDbLine
 10
53.21185881909253
 20
21.9145415440035
 30
0.0
 11
53.21185881909253
 21
69.91454154400364
 31
0.0
  0
LINE
  5
238A
330
1F
100
AcDbEntity
  8
Schraffur
 62
     5
100
AcDbLine
 10
73.21185881909253
 20
21.9145415440035
 30
0.0
 11
73.21185881909253
 21
69.91454154400364
 31
0.0
  0
LINE
  5
238B
330
1F
100
AcDbEntity
  8
Schraffur
 62
     5
100
AcDbLine
 10
93.21185881909263
 20
21.9145415440035
 30
0.0
 11
93.21185881909263
 21
69.91454154400364
 31
0.0
  0
LINE
  5
238C
330
1F
100
AcDbEntity
  8
Schraffur
 62
     5
100
AcDbLine
 10
193.2118588190926
 20
21.9145415440035
 30
0.0
 11
193.2118588190926
 21
69.91454154400364
 31
0.0
  0
LINE
  5
238D
330
1F
100
AcDbEntity
  8
Schraffur
 62
     5
100
AcDbLine
 10
213.2118588190926
 20
21.9145415440035
 30
0.0
 11
213.2118588190926
 21
69.91454154400364
 31
0.0
  0
LINE
  5
238E
330
1F
100
AcDbEntity
  8
Schraffur
 62
     5
100
AcDbLine
 10
233.2118588190926
 20
21.9145415440035
 30
0.0
 11
233.2118588190926
 21
69.91454154400364
 31
0.0
  0
LINE
  5
2391
330
1F
100
AcDbEntity
  8
Schraffur
 62
     5
100
AcDbLine
 10
233.2118588190926
 20
104.9808310568925
 30
0.0
 11
233.2118588190926
 21
152.9808310568926
 31
0.0
  0
LINE
  5
2392
330
1F
100
AcDbEntity
  8
Schraffur
 62
     5
100
AcDbLine
 10
213.2118588190926
 20
104.9808310568925
 30
0.0
 11
213.2118588190926
 21
152.9808310568926
 31
0.0
  0
LINE
  5
2393
330
1F
100
AcDbEntity
  8
Schraffur
 62
     5
100
AcDbLine
 10
193.2118588190926
 20
104.9808310568925
 30
0.0
 11
193.2118588190926
 21
152.9808310568926
 31
0.0
  0
LINE
  5
2394
330
1F
100
AcDbEntity
  8
Schraffur
 62
     5
100
AcDbLine
 10
93.21185881909263
 20
104.9808310568925
 30
0.0
 11
93.21185881909263
 21
152.9808310568926
 31
0.0
  0
LINE
  5
2395
330
1F
100
AcDbEntity
  8
Schraffur
 62
     5
100
AcDbLine
 10
73.21185881909253
 20
104.9808310568925
 30
0.0
 11
73.21185881909253
 21
152.9808310568926
 31
0.0
  0
LINE
  5
2396
330
1F
100
AcDbEntity
  8
Schraffur
 62
     5
100
AcDbLine
 10
53.21185881909253
 20
104.9808310568925
 30
0.0
 11
53.21185881909253
 21
152.9808310568926
 31
0.0
  0
HATCH
  5
23AD
330
1F
100
AcDbEntity
  8
Schraffur
 62
     5
100
AcDbHatch
 10
0.0
 20
0.0
 30
0.0
210
0.0
220
0.0
230
1.0
  2
STEEL
 70
     0
 71
     0
 91
        2
 92
        7
 72
     1
 73
     1
 93
        7
 10
53.21185881909253
 20
152.9808310568926
 42
0.0
 10
34.21185881909247
 20
152.9808310568926
 42
0.0
 10
34.21185881909247
 20
140.3808315570788
 42
0.0
 10
34.21185881909247
 20
136.3808315570786
 42
0.0
 10
34.2118588190927
 20
107.9808310568925
 42
0.414213562373094
 10
37.21185881909271
 20
104.9808310568925
 42
0.0
 10
53.21185881909253
 20
104.9808310568925
 42
0.0
 97
        0
 92
        7
 72
     0
 73
     1
 93
        5
 10
93.21185881909263
 20
152.9808310568926
 10
73.21185881909251
 20
152.9808310568926
 10
73.21185881909253
 20
104.9808310568925
 10
91.21185881909276
 20
104.9808310568925
 10
93.21185881909263
 20
104.9808310568925
 97
        0
 75
     0
 76
     1
 52
0.0
 41
2.0
 77
     0
 78
     2
 53
45.0
 43
0.0
 44
0.0
 45
-4.490128060534575
 46
4.490128060534575
 79
     0
 53
45.0
 43
0.0
 44
3.174999999999998
 45
-4.490128060534575
 46
4.490128060534575
 79
     0
 47
0.5919129471860321
 98
        2
 10
47.0845843679391
 20
115.7003369154535
 10
90.33323793273188
 20
116.2922498809098
1001
ACAD
1010
0.0
1020
0.0
1030
0.0
  0
HATCH
  5
23C3
330
1F
100
AcDbEntity
  8
Schraffur
 62
     5
100
AcDbHatch
 10
0.0
 20
0.0
 30
0.0
210
0.0
220
0.0
230
1.0
  2
STEEL
 70
     0
 71
     0
 91
        2
 92
        7
 72
     1
 73
     1
 93
        7
 10
193.2118588190926
 20
152.9808310568926
 42
0.0
 10
174.2118588190926
 20
152.9808310568926
 42
0.0
 10
174.2118588190926
 20
140.3808315570788
 42
0.0
 10
174.2118588190926
 20
136.3808315570786
 42
0.0
 10
174.2118588190926
 20
107.9808310568925
 42
0.414213562373094
 10
177.2118588190926
 20
104.9808310568925
 42
0.0
 10
193.2118588190926
 20
104.9808310568925
 42
0.0
 97
        0
 92
        7
 72
     0
 73
     1
 93
        4
 10
233.2118588190926
 20
152.9808310568926
 10
213.2118588190926
 20
152.9808310568926
 10
213.2118588190926
 20
104.9808310568925
 10
233.2118588190926
 20
104.9808310568925
 97
        0
 75
     0
 76
     1
 52
0.0
 41
2.0
 77
     0
 78
     2
 53
45.0
 43
0.0
 44
0.0
 45
-4.490128060534575
 46
4.490128060534575
 79
     0
 53
45.0
 43
0.0
 44
3.174999999999998
 45
-4.490128060534575
 46
4.490128060534575
 79
     0
 47
0.5919129471860321
 98
        2
 10
183.9399140580079
 20
126.3547697595303
 10
228.373462294062
 20
121.61946603588
1001
ACAD
1010
0.0
1020
0.0
1030
0.0
  0
HATCH
  5
23E0
330
1F
100
AcDbEntity
  8
Schraffur
 62
     5
100
AcDbHatch
 10
0.0
 20
0.0
 30
0.0
210
0.0
220
0.0
230
1.0
  2
STEEL
 70
     0
 71
     0
 91
        2
 92
        7
 72
     1
 73
     1
 93
       14
 10
53.21185881909253
 20
69.91454154400364
 42
0.0
 10
34.21185881909247
 20
69.91454154400362
 42
0.0
 10
34.21185881909247
 20
57.31454204418978
 42
0.0
 10
34.21185881909333
 20
55.10523857296711
 42
0.5205670505517464
 10
38.23791924907043
 20
52.28616071060939
 42
0.0
 10
42.44059292531011
 20
53.81580883309482
 42
0.2679491924311772
 10
42.76198673015342
 20
54.19883105465429
 42
0.0
 10
43.16798570030118
 20
56.50136563283689
 42
-0.3639702342662284
 10
43.66038957680728
 20
56.91454154400346
 42
0.0
 10
45.71185881909332
 20
56.91454154400346
 42
-0.4142135623731464
 10
46.21185881909338
 20
56.41454154400349
 42
0.0
 10
46.21185881909332
 20
24.91454154400361
 42
0.4142135623731011
 10
49.21185881909337
 20
21.9145415440035
 42
0.0
 10
53.21185881909253
 20
21.9145415440035
 42
0.0
 97
        0
 92
        7
 72
     0
 73
     1
 93
        4
 10
93.21185881909263
 20
69.91454154400364
 10
73.21185881909253
 20
69.91454154400364
 10
73.21185881909255
 20
21.9145415440035
 10
93.21185881909263
 20
21.9145415440035
 97
        0
 75
     0
 76
     1
 52
0.0
 41
2.0
 77
     0
 78
     2
 53
45.0
 43
0.0
 44
0.0
 45
-4.490128060534575
 46
4.490128060534575
 79
     0
 53
45.0
 43
0.0
 44
3.174999999999998
 45
-4.490128060534575
 46
4.490128060534575
 79
     0
 47
0.5919129471860321
 98
        2
 10
45.30724236104709
 20
63.61199702357264
 10
91.5181326039932
 20
47.03843452493288
1001
ACAD
1010
0.0
1020
0.0
1030
0.0
  0
HATCH
  5
23FD
330
1F
100
AcDbEntity
  8
Schraffur
 62
     5
100
AcDbHatch
 10
0.0
 20
0.0
 30
0.0
210
0.0
220
0.0
230
1.0
  2
STEEL
 70
     0
 71
     0
 91
        2
 92
        7
 72
     1
 73
     1
 93
       14
 10
193.2118588190926
 20
69.91454154400364
 42
0.0
 10
174.2118588190924
 20
69.91454154400364
 42
0.0
 10
174.2118588190926
 20
57.31454204418978
 42
0.0
 10
174.2118588190933
 20
54.91454154400345
 42
0.5205670505517267
 10
178.2379192490702
 20
52.09546368164574
 42
0.0
 10
182.4405929253103
 20
53.62511180413109
 42
0.2679491924307979
 10
182.7619867301534
 20
54.00813402568999
 42
0.0
 10
183.1658787820311
 20
56.48842708961224
 42
-0.3714110892200893
 10
183.6603895768073
 20
56.91454154400346
 42
0.0
 10
185.7118588190933
 20
56.91454154400346
 42
-0.4142135623731298
 10
186.2118588190933
 20
56.41454154400353
 42
0.0
 10
186.2118588190933
 20
24.91454154400361
 42
0.4142135623731015
 10
189.2118588190934
 20
21.9145415440035
 42
0.0
 10
193.2118588190926
 20
21.9145415440035
 42
0.0
 97
        0
 92
        7
 72
     0
 73
     1
 93
        4
 10
233.2118588190926
 20
69.91454154400364
 10
213.2118588190926
 20
69.91454154400362
 10
213.2118588190926
 20
21.9145415440035
 10
233.2118588190926
 20
21.9145415440035
 97
        0
 75
     0
 76
     1
 52
0.0
 41
2.0
 77
     0
 78
     2
 53
45.0
 43
0.0
 44
0.0
 45
-4.490128060534575
 46
4.490128060534575
 79
     0
 53
45.0
 43
0.0
 44
3.174999999999998
 45
-4.490128060534575
 46
4.490128060534575
 79
     0
 47
0.5919129471860321
 98
        2
 10
191.641728453084
 20
61.24434569588395
 10
223.6338836090169
 20
48.8141734213018
1001
ACAD
1010
0.0
1020
0.0
1030
0.0
  0
HATCH
  5
2412
330
1F
100
AcDbEntity
  8
Schraffur
 62
     5
100
AcDbHatch
 10
0.0
 20
0.0
 30
0.0
210
0.0
220
0.0
230
1.0
  2
STEEL
 70
     0
 71
     0
 91
        2
 92
        7
 72
     0
 73
     1
 93
        4
 10
73.21185881909253
 20
152.9808310568926
 10
53.21185881909252
 20
152.9808310568926
 10
53.21185881909254
 20
104.9808310568925
 10
73.21185881909253
 20
104.9808310568925
 97
        0
 92
        7
 72
     1
 73
     1
 93
        6
 10
112.2118588190927
 20
141.4808310568925
 42
0.0
 10
112.2118588190922
 20
152.9808310568926
 42
0.0
 10
93.21185881909263
 20
152.9808310568926
 42
0.0
 10
93.21185881909263
 20
104.9808310568925
 42
0.0
 10
109.2118588190919
 20
104.9808310568925
 42
0.4142135623731326
 10
112.2118588190927
 20
107.9808310568929
 42
0.0
 97
        0
 75
     0
 76
     1
 52
90.0
 41
2.0
 77
     0
 78
     2
 53
135.0
 43
0.0
 44
0.0
 45
-4.490128060534575
 46
-4.490128060534575
 79
     0
 53
135.0
 43
-3.174999999999998
 44
0.0000000000000002
 45
-4.490128060534575
 46
-4.490128060534575
 79
     0
 47
0.5919129471860321
 98
        2
 10
61.30331945495232
 20
130.4981605177244
 10
108.1066580016516
 20
116.8841628463661
1001
ACAD
1010
0.0
1020
0.0
1030
0.0
  0
HATCH
  5
2429
330
1F
100
AcDbEntity
  8
Schraffur
 62
     5
100
AcDbHatch
 10
0.0
 20
0.0
 30
0.0
210
0.0
220
0.0
230
1.0
  2
STEEL
 70
     0
 71
     0
 91
        2
 92
        7
 72
     0
 73
     1
 93
        4
 10
213.2118588190926
 20
152.9808310568926
 10
193.2118588190926
 20
152.9808310568926
 10
193.2118588190926
 20
104.9808310568925
 10
213.2118588190926
 20
104.9808310568925
 97
        0
 92
        7
 72
     1
 73
     1
 93
        8
 10
252.2118588190923
 20
152.9808310568926
 42
0.0
 10
233.2118588190926
 20
152.9808310568926
 42
0.0
 10
233.2118588190926
 20
104.9808310568925
 42
0.0
 10
241.2118588190932
 20
104.9808310568925
 42
0.4142135623730911
 10
244.2118588190932
 20
107.9808310568924
 42
0.0
 10
244.2118588190936
 20
134.9808310568925
 42
0.0
 10
250.7118588190929
 20
134.9808310568925
 42
0.4142135623731214
 10
252.2118588190929
 20
136.4808310568925
 42
0.0
 97
        0
 75
     0
 76
     1
 52
90.0
 41
2.0
 77
     0
 78
     2
 53
135.0
 43
0.0
 44
0.0
 45
-4.490128060534575
 46
-4.490128060534575
 79
     0
 53
135.0
 43
-3.174999999999998
 44
0.0000000000000002
 45
-4.490128060534575
 46
-4.490128060534575
 79
     0
 47
0.5919129471860321
 98
        2
 10
205.2680171725891
 20
121.61946603588
 10
244.3695393879674
 20
142.3364192927138
1001
ACAD
1010
0.0
1020
0.0
1030
0.0
  0
HATCH
  5
2440
330
1F
100
AcDbEntity
  8
Schraffur
 62
     5
100
AcDbHatch
 10
0.0
 20
0.0
 30
0.0
210
0.0
220
0.0
230
1.0
  2
STEEL
 70
     0
 71
     0
 91
        2
 92
        7
 72
     0
 73
     1
 93
        4
 10
73.21185881909253
 20
69.91454154400364
 10
53.21185881909253
 20
69.91454154400364
 10
53.21185881909253
 20
21.9145415440035
 10
73.21185881909253
 20
21.9145415440035
 97
        0
 92
        7
 72
     1
 73
     1
 93
        8
 10
112.2118588190922
 20
69.91454154400364
 42
0.0
 10
93.21185881909263
 20
69.91454154400364
 42
0.0
 10
93.21185881909263
 20
21.9145415440035
 42
0.0
 10
101.2118588190932
 20
21.9145415440035
 42
0.4142135623730866
 10
104.2118588190932
 20
24.91454154400351
 42
0.0
 10
104.2118588190936
 20
51.91454154400346
 42
0.0
 10
110.7118588190926
 20
51.91454154400346
 42
0.4142135623731173
 10
112.2118588190927
 20
53.41454154400356
 42
0.0
 97
        0
 75
     0
 76
     1
 52
90.0
 41
2.0
 77
     0
 78
     2
 53
135.0
 43
0.0
 44
0.0
 45
-4.490128060534575
 46
-4.490128060534575
 79
     0
 53
135.0
 43
-3.174999999999998
 44
0.0000000000000002
 45
-4.490128060534575
 46
-4.490128060534575
 79
     0
 47
0.5919129471860321
 98
        2
 10
64.26555613310563
 20
55.91712900677731
 10
99.81239530282245
 20
61.83625866134031
1001
ACAD
1010
0.0
1020
0.0
1030
0.0
  0
HATCH
  5
2456
330
1F
100
AcDbEntity
  8
Schraffur
 62
     5
100
AcDbHatch
 10
0.0
 20
0.0
 30
0.0
210
0.0
220
0.0
230
1.0
  2
STEEL
 70
     0
 71
     0
 91
        2
 92
        7
 72
     0
 73
     1
 93
        4
 10
213.2118588190926
 20
69.91454154400364
 10
193.2118588190926
 20
69.91454154400364
 10
193.2118588190926
 20
21.9145415440035
 10
213.2118588190926
 20
21.9145415440035
 97
        0
 92
        7
 72
     1
 73
     1
 93
        7
 10
252.2118588190929
 20
58.4145415440037
 42
0.0
 10
252.2118588190924
 20
69.91454154400364
 42
0.0
 10
233.2118588190926
 20
69.91454154400364
 42
0.0
 10
233.2118588190926
 20
21.9145415440035
 42
0.0
 10
241.2118588190929
 20
21.9145415440035
 42
0.0
 10
249.2118588190923
 20
21.9145415440035
 42
0.4142135623731173
 10
252.2118588190929
 20
24.91454154400384
 42
0.0
 97
        0
 75
     0
 76
     1
 52
90.0
 41
2.0
 77
     0
 78
     2
 53
135.0
 43
0.0
 44
0.0
 45
-4.490128060534575
 46
-4.490128060534575
 79
     0
 53
135.0
 43
-3.174999999999998
 44
0.0000000000000002
 45
-4.490128060534575
 46
-4.490128060534575
 79
     0
 47
0.5919129471860321
 98
        2
 10
206.4529118438503
 20
45.85460859402028
 10
247.9242234017512
 20
47.63034749038922
1001
ACAD
1010
0.0
1020
0.0
1030
0.0
  0
VIEWPORT
  5
1CC5
102
{ACAD_XDICTIONARY
360
28C6
102
}
330
1CC3
100
AcDbEntity
 67
     1
  8
0
100
AcDbViewport
 10
152.8166546816126
 20
98.98666420040706
 30
0.0
 40
415.4629030150672
 41
212.5839103302903
 68
     1
 69
     1
 12
152.8166546816126
 22
98.98666420040706
 13
0.0
 23
0.0
 14
10.0
 24
10.0
 15
10.0
 25
10.0
 16
0.0
 26
0.0
 36
1.0
 17
0.0
 27
0.0
 37
0.0
 42
50.0
 43
0.0
 44
0.0
 45
212.5839103302903
 50
0.0
 51
0.0
 72
  1000
 90
   557088
  1

281
     0
 71
     1
 74
     0
110
0.0
120
0.0
130
0.0
111
1.0
121
0.0
131
0.0
112
0.0
122
1.0
132
0.0
 79
     0
146
0.0
  0
VIEWPORT
  5
1CC6
102
{ACAD_XDICTIONARY
360
28C8
102
}
330
1CC3
100
AcDbEntity
 67
     1
  8
0
100
AcDbViewport
 10
142.515920700506
 20
98.98666347898036
 30
0.0
 40
297.0318419579695
 41
209.9733273852992
 68
     2
 69
     2
 12
148.3172137040858
 22
104.8684306445656
 13
0.0
 23
0.0
 14
10.0
 24
10.0
 15
10.0
 25
10.0
 16
0.0
 26
0.0
 36
1.0
 17
0.0
 27
0.0
 37
0.0
 42
50.0
 43
0.0
 44
0.0
 45
209.9733239306096
 50
0.0
 51
0.0
 72
  1000
 90
   819296
  1

281
     0
 71
     1
 74
     0
110
0.0
120
0.0
130
0.0
111
1.0
121
0.0
131
0.0
112
0.0
122
1.0
132
0.0
 79
     0
146
0.0
  0
ENDSEC
  0
SECTION
  2
OBJECTS
  0
DICTIONARY
  5
C
330
0
100
AcDbDictionary
281
     1
  3
ACAD_CIP_PREVIOUS_PRODUCT_INFO
350
2837
  3
ACAD_COLOR
350
6B
  3
ACAD_GROUP
350
D
  3
ACAD_LAYOUT
350
1A
  3
ACAD_MATERIAL
350
6A
  3
ACAD_MLEADERSTYLE
350
2830
  3
ACAD_MLINESTYLE
350
17
  3
ACAD_PLOTSETTINGS
350
19
  3
ACAD_PLOTSTYLENAME
350
E
  3
ACAD_SCALELIST
350
281E
  3
ACAD_TABLESTYLE
350
7E
  3
ACAD_VISUALSTYLE
350
EF
  3
ACDB_RECOMPOSE_DATA
350
28A1
  3
AcDbVariableDictionary
350
5E
  3
DWGPROPS
350
28A2
  0
DICTIONARY
  5
120
330
2
100
AcDbDictionary
280
     1
281
     1
  3
ACAD_LAYERSTATES
360
121
  0
DICTIONARY
  5
2891
330
10
100
AcDbDictionary
280
     1
281
     1
  3
ADSK_XREC_LAYER_RECONCILED
360
2892
  0
DICTIONARY
  5
2893
330
1EB9
100
AcDbDictionary
280
     1
281
     1
  3
ADSK_XREC_LAYER_RECONCILED
360
2894
  0
DICTIONARY
  5
2895
330
1EBD
100
AcDbDictionary
280
     1
281
     1
  3
ADSK_XREC_LAYER_RECONCILED
360
2896
  0
DICTIONARY
  5
2897
330
1EBE
100
AcDbDictionary
280
     1
281
     1
  3
ADSK_XREC_LAYER_RECONCILED
360
2898
  0
DICTIONARY
  5
2899
330
2572
100
AcDbDictionary
280
     1
281
     1
  3
ADSK_XREC_LAYER_RECONCILED
360
289A
  0
DICTIONARY
  5
289B
330
2573
100
AcDbDictionary
280
     1
281
     1
  3
ADSK_XREC_LAYER_RECONCILED
360
289C
  0
DICTIONARY
  5
732
330
1F
100
AcDbDictionary
280
     1
281
     1
  3
ACAD_SORTENTS
360
733
  0
DICTIONARY
  5
28CB
330
1F4D
100
AcDbDictionary
280
     1
281
     1
  3
ACAD_MTEXT_RT
360
28CC
  0
DICTIONARY
  5
28CD
330
22AA
100
AcDbDictionary
280
     1
281
     1
  3
ACAD_MTEXT_RT
360
28CE
  0
DICTIONARY
  5
28C6
330
1CC5
100
AcDbDictionary
280
     1
281
     1
  3
ACAD_XREC_ROUNDTRIP
360
28C7
  0
DICTIONARY
  5
28C8
330
1CC6
100
AcDbDictionary
280
     1
281
     1
  3
ACAD_XREC_ROUNDTRIP
360
28C9
  0
XRECORD
  5
2837
102
{ACAD_REACTORS
330
C
102
}
330
C
100
AcDbXrecord
280
     1
300
ACDLT
300
2012
300
ACDLT_F_S
  0
DICTIONARY
  5
6B
102
{ACAD_REACTORS
330
C
102
}
330
C
100
AcDbDictionary
281
     1
  0
DICTIONARY
  5
D
102
{ACAD_REACTORS
330
C
102
}
330
C
100
AcDbDictionary
281
     1
  0
DICTIONARY
  5
1A
102
{ACAD_REACTORS
330
C
102
}
330
C
100
AcDbDictionary
281
     1
  3
Layout A4-quer
350
1CC8
  3
Model
350
22
  0
DICTIONARY
  5
6A
102
{ACAD_REACTORS
330
C
102
}
330
C
100
AcDbDictionary
281
     1
  3
ByBlock
350
ED
  3
ByLayer
350
EC
  3
Global
350
EE
  0
DICTIONARY
  5
2830
102
{ACAD_REACTORS
330
C
102
}
330
C
100
AcDbDictionary
281
     1
  3
Standard
350
2831
  0
DICTIONARY
  5
17
102
{ACAD_REACTORS
330
C
102
}
330
C
100
AcDbDictionary
281
     1
  3
Standard
350
18
  0
DICTIONARY
  5
19
102
{ACAD_REACTORS
330
C
102
}
330
C
100
AcDbDictionary
281
     1
  0
ACDBDICTIONARYWDFLT
  5
E
102
{ACAD_REACTORS
330
C
102
}
330
C
100
AcDbDictionary
281
     1
  3
Normal
350
F
100
AcDbDictionaryWithDefault
340
F
  0
DICTIONARY
  5
281E
102
{ACAD_REACTORS
330
C
102
}
330
C
100
AcDbDictionary
281
     1
  3
A0
350
281F
  3
A1
350
2820
  3
A2
350
2821
  3
A3
350
2822
  3
A4
350
2823
  3
A5
350
2824
  3
A6
350
2825
  3
A7
350
2826
  3
A8
350
2827
  3
A9
350
2828
  3
B0
350
2829
  3
B1
350
282A
  3
B2
350
282B
  3
B3
350
282C
  3
B4
350
282D
  3
B5
350
282E
  3
B6
350
282F
  0
DICTIONARY
  5
7E
102
{ACAD_REACTORS
330
C
102
}
330
C
100
AcDbDictionary
281
     1
  3
Standard
350
7F
  0
DICTIONARY
  5
EF
102
{ACAD_REACTORS
330
C
102
}
330
C
100
AcDbDictionary
281
     1
  3
2dWireframe
350
F5
  3
3D Hidden
350
F7
  3
3dWireframe
350
F6
  3
Basic
350
F4
  3
Brighten
350
FB
  3
ColorChange
350
FF
  3
Conceptual
350
F8
  3
Dim
350
FA
  3
EdgeColorOff
350
281D
  3
Facepattern
350
FE
  3
Flat
350
F0
  3
FlatWithEdges
350
F1
  3
Gouraud
350
F2
  3
GouraudWithEdges
350
F3
  3
Hidden
350
2815
  3
JitterOff
350
281B
  3
Linepattern
350
FD
  3
OverhangOff
350
281C
  3
Realistic
350
F9
  3
Shaded
350
281A
  3
Shaded with edges
350
2819
  3
Shades of Gray
350
2816
  3
Sketchy
350
2817
  3
Thicken
350
FC
  3
Wireframe
350
2814
  3
X-Ray
350
2818
  0
XRECORD
  5
28A1
102
{ACAD_REACTORS
330
C
102
}
330
C
100
AcDbXrecord
280
     1
 90
        1
330
7F
  0
DICTIONARY
  5
5E
102
{ACAD_REACTORS
330
C
102
}
330
C
100
AcDbDictionary
281
     1
  3
CANNOSCALE
350
2839
  3
CMLEADERSTYLE
350
2838
  3
CTABLESTYLE
350
84
  3
DIMASSOC
350
5F
  3
HIDETEXT
350
63
  3
INDEXCTL
350
70A
  3
PSOLHEIGHT
350
289E
  3
PSOLWIDTH
350
289D
  3
SORTENTS
350
709
  3
XCLIPFRAME
350
289F
  0
XRECORD
  5
28A2
102
{ACAD_REACTORS
330
C
102
}
330
C
100
AcDbXrecord
280
     1
  1
DWGPROPS COOKIE
  2

  3

  4

  6

  7

  8
skoelzer
  9

300
=
301
=
302
=
303
=
304
=
305
=
306
=
307
=
308
=
309
=
 40
0.0204386458333333
 41
2454531.576644907
 42
2456632.391920648
  1

 90
        0
  0
DICTIONARY
  5
121
102
{ACAD_REACTORS
330
120
102
}
330
120
100
AcDbDictionary
281
     1
  0
XRECORD
  5
2892
102
{ACAD_REACTORS
330
2891
102
}
330
2891
100
AcDbXrecord
280
     1
290
     1
  0
XRECORD
  5
2894
102
{ACAD_REACTORS
330
2893
102
}
330
2893
100
AcDbXrecord
280
     1
290
     1
  0
XRECORD
  5
2896
102
{ACAD_REACTORS
330
2895
102
}
330
2895
100
AcDbXrecord
280
     1
290
     1
  0
XRECORD
  5
2898
102
{ACAD_REACTORS
330
2897
102
}
330
2897
100
AcDbXrecord
280
     1
290
     1
  0
XRECORD
  5
289A
102
{ACAD_REACTORS
330
2899
102
}
330
2899
100
AcDbXrecord
280
     1
290
     1
  0
XRECORD
  5
289C
102
{ACAD_REACTORS
330
289B
102
}
330
289B
100
AcDbXrecord
280
     1
290
     1
  0
SORTENTSTABLE
  5
733
102
{ACAD_REACTORS
330
732
102
}
330
732
100
AcDbSortentsTable
330
1F
331
2393
  5
23AE
331
1F41
  5
1F49
331
1F4D
  5
2389
331
2392
  5
23E1
331
1F4C
  5
237E
331
1F4B
  5
237D
331
2391
  5
2413
331
1F4A
  5
237C
331
22AC
  5
238B
331
1F49
  5
233B
331
1F48
  5
233A
331
22AA
  5
238A
331
1F1E
  5
1F22
331
1F2A
  5
1F35
331
1F34
  5
1F44
331
1F28
  5
1F2D
331
2440
  5
1F15
331
1F27
  5
1F2C
331
1F14
  5
1F16
331
2412
  5
1F34
331
23FD
  5
1F20
331
2429
  5
1F43
331
23AD
  5
1F2E
331
23E0
  5
1F14
331
238E
  5
23FE
331
233B
  5
238D
331
238D
  5
23C4
331
1F47
  5
22AC
331
2456
  5
1F21
331
233A
  5
238C
331
1F46
  5
22AA
331
238C
  5
2397
331
23C3
  5
1F42
331
1F45
  5
1F4D
331
238B
  5
2395
331
2396
  5
2392
331
1F44
  5
1F4C
331
238A
  5
2393
331
2395
  5
2394
331
1F43
  5
1F4B
331
2389
  5
2391
331
2394
  5
2396
331
1F42
  5
1F4A
  0
XRECORD
  5
28CC
102
{ACAD_REACTORS
330
28CB
102
}
330
28CB
100
AcDbXrecord
280
     1
 40
769830.0
  1
{\fArial|b1|i0|c0|p34;Standard-Fensterbankanschlüsse - Holzfenster IV78\P\fArial|b0|i0|c0|p34;\H0.8x;Standardfräsungen}
  0
XRECORD
  5
28CE
102
{ACAD_REACTORS
330
28CD
102
}
330
28CD
100
AcDbXrecord
280
     1
 40
293718.0
  1
{\fArial|b0|i0|c0|p34;Zeichnung ohne Gewähr; Änderungen vorbehalten}
  0
XRECORD
  5
28C7
102
{ACAD_REACTORS
330
28C6
102
}
330
28C6
100
AcDbXrecord
280
     1
102
SHADEPLOT
 70
     0
  0
XRECORD
  5
28C9
102
{ACAD_REACTORS
330
28C8
102
}
330
28C8
100
AcDbXrecord
280
     1
102
SHADEPLOT
 70
     0
  0
LAYOUT
  5
1CC8
102
{ACAD_XDICTIONARY
360
1CC9
102
}
102
{ACAD_REACTORS
330
1A
102
}
330
1A
100
AcDbPlotSettings
  1

  2
Adobe PDF
  4
A4
  6

 40
3.174999952316281
 41
3.174999952316281
 42
3.175003051757812
 43
3.17498779296875
 44
209.9733276367186
 45
297.0318298339844
 46
2.825000047683714
 47
2.825000047683714
 48
0.0
 49
0.0
140
0.0
141
0.0
142
1.0
143
1.0
 70
   672
 72
     1
 73
     1
 74
     5
  7
Grayscale.ctb
 75
    16
147
1.0
148
0.0
149
0.0
100
AcDbLayout
  1
Layout A4-quer
 70
     1
 71
     1
 10
-5.999987840652463
 20
-5.999999999999997
 11
291.0318419933318
 21
203.9733276367186
 12
0.0
 22
0.0
 32
0.0
 14
-6.000000278478751
 24
-6.000000213669252
 34
0.0
 15
291.0318416794908
 25
203.9733271716299
 35
0.0
146
0.0
 13
0.0
 23
0.0
 33
0.0
 16
1.0
 26
0.0
 36
0.0
 17
0.0
 27
1.0
 37
0.0
 76
     0
330
1CC3
331
1CC5
1001
ACAD_PSEXT
1000
Adobe PDF
1000
Adobe PDF Converter
1000
Eigene Dateien
1000

1070
     0
  0
LAYOUT
  5
22
102
{ACAD_XDICTIONARY
360
28A3
102
}
102
{ACAD_REACTORS
330
1A
102
}
330
1A
100
AcDbPlotSettings
  1

  2
\\ideal2000-01\RICOH Aficio MP 161 PCL 6
  4
A4
  6

 40
5.027082920074462
 41
5.027085781097412
 42
5.027069091796875
 43
5.027069091796875
 44
209.9733276367186
 45
296.9259948730469
 46
-48.54041218757629
 47
-66.56407999992372
 48
0.0
 49
0.0
140
0.0
141
0.0
142
1.0
143
1.0
 70
 11940
 72
     1
 73
     1
 74
     2
  7

 75
     0
147
0.6637998983467655
148
0.0
149
0.0
100
AcDbLayout
  1
Model
 70
     1
 71
     0
 10
0.0
 20
0.0
 11
12.0
 21
9.0
 12
0.0
 22
0.0
 32
0.0
 14
0.0
 24
0.0
 34
0.0
 15
0.0
 25
0.0
 35
0.0
146
0.0
 13
0.0
 23
0.0
 33
0.0
 16
1.0
 26
0.0
 36
0.0
 17
0.0
 27
1.0
 37
0.0
 76
     0
330
1F
331
EA
1001
ACAD_PSEXT
1000
\\ideal2000-01\RICOH Aficio MP 161 PCL 6
1000
RICOH Aficio MP 161 PCL 6
1000
Bei Hern Becker an JetAdmin 172.16.99.14
1000

1070
     0
  0
MATERIAL
  5
ED
102
{ACAD_XDICTIONARY
360
718
102
}
102
{ACAD_REACTORS
330
6A
102
}
330
6A
100
AcDbMaterial
  1
ByBlock
  0
MATERIAL
  5
EC
102
{ACAD_XDICTIONARY
360
716
102
}
102
{ACAD_REACTORS
330
6A
102
}
330
6A
100
AcDbMaterial
  1
ByLayer
  0
MATERIAL
  5
EE
102
{ACAD_XDICTIONARY
360
71A
102
}
102
{ACAD_REACTORS
330
6A
102
}
330
6A
100
AcDbMaterial
  1
Global
  0
MLEADERSTYLE
  5
2831
102
{ACAD_REACTORS
330
2830
102
}
330
2830
100
AcDbMLeaderStyle
170
     2
171
     1
172
     0
 90
        2
 40
0.0
 41
0.0
173
     1
 91
-1056964608
340
14
 92
       -2
290
     1
 42
2.0
291
     1
 43
0.36
  3
Standard
 44
4.0
300

342
11
174
     1
178
     6
175
     1
176
     0
 93
-1056964608
 45
4.0
292
     0
297
     0
 46
4.0
 94
-1056964608
 47
1.0
 49
1.0
140
1.0
293
     1
141
0.0
294
     1
177
     0
142
1.0
295
     0
296
     0
143
0.125
1001
ACAD_MLEADERVER
1070
     2
  0
MLINESTYLE
  5
18
102
{ACAD_REACTORS
330
17
102
}
330
17
100
AcDbMlineStyle
  2
STANDARD
 70
     0
  3

 62
   256
 51
90.0
 52
90.0
 71
     2
 49
0.5
 62
   256
  6
BYLAYER
 49
-0.5
 62
   256
  6
BYLAYER
  0
ACDBPLACEHOLDER
  5
F
102
{ACAD_REACTORS
330
E
102
}
330
E
  0
SCALE
  5
281F
102
{ACAD_REACTORS
330
281E
102
}
330
281E
100
AcDbScale
 70
     0
300
1:1
140
1.0
141
1.0
290
     1
  0
SCALE
  5
2820
102
{ACAD_REACTORS
330
281E
102
}
330
281E
100
AcDbScale
 70
     0
300
1:2
140
1.0
141
2.0
290
     0
  0
SCALE
  5
2821
102
{ACAD_REACTORS
330
281E
102
}
330
281E
100
AcDbScale
 70
     0
300
1:4
140
1.0
141
4.0
290
     0
  0
SCALE
  5
2822
102
{ACAD_REACTORS
330
281E
102
}
330
281E
100
AcDbScale
 70
     0
300
1:5
140
1.0
141
5.0
290
     0
  0
SCALE
  5
2823
102
{ACAD_REACTORS
330
281E
102
}
330
281E
100
AcDbScale
 70
     0
300
1:8
140
1.0
141
8.0
290
     0
  0
SCALE
  5
2824
102
{ACAD_REACTORS
330
281E
102
}
330
281E
100
AcDbScale
 70
     0
300
1:10
140
1.0
141
10.0
290
     0
  0
SCALE
  5
2825
102
{ACAD_REACTORS
330
281E
102
}
330
281E
100
AcDbScale
 70
     0
300
1:16
140
1.0
141
16.0
290
     0
  0
SCALE
  5
2826
102
{ACAD_REACTORS
330
281E
102
}
330
281E
100
AcDbScale
 70
     0
300
1:20
140
1.0
141
20.0
290
     0
  0
SCALE
  5
2827
102
{ACAD_REACTORS
330
281E
102
}
330
281E
100
AcDbScale
 70
     0
300
1:30
140
1.0
141
30.0
290
     0
  0
SCALE
  5
2828
102
{ACAD_REACTORS
330
281E
102
}
330
281E
100
AcDbScale
 70
     0
300
1:40
140
1.0
141
40.0
290
     0
  0
SCALE
  5
2829
102
{ACAD_REACTORS
330
281E
102
}
330
281E
100
AcDbScale
 70
     0
300
1:50
140
1.0
141
50.0
290
     0
  0
SCALE
  5
282A
102
{ACAD_REACTORS
330
281E
102
}
330
281E
100
AcDbScale
 70
     0
300
1:100
140
1.0
141
100.0
290
     0
  0
SCALE
  5
282B
102
{ACAD_REACTORS
330
281E
102
}
330
281E
100
AcDbScale
 70
     0
300
2:1
140
2.0
141
1.0
290
     0
  0
SCALE
  5
282C
102
{ACAD_REACTORS
330
281E
102
}
330
281E
100
AcDbScale
 70
     0
300
4:1
140
4.0
141
1.0
290
     0
  0
SCALE
  5
282D
102
{ACAD_REACTORS
330
281E
102
}
330
281E
100
AcDbScale
 70
     0
300
8:1
140
8.0
141
1.0
290
     0
  0
SCALE
  5
282E
102
{ACAD_REACTORS
330
281E
102
}
330
281E
100
AcDbScale
 70
     0
300
10:1
140
10.0
141
1.0
290
     0
  0
SCALE
  5
282F
102
{ACAD_REACTORS
330
281E
102
}
330
281E
100
AcDbScale
 70
     0
300
100:1
140
100.0
141
1.0
290
     0
  0
TABLESTYLE
  5
7F
102
{ACAD_XDICTIONARY
360
283E
102
}
102
{ACAD_REACTORS
330
7E
102
}
330
7E
100
AcDbTableStyle
  3
Standard
 70
     0
 71
     0
 40
1.5
 41
1.5
280
     0
281
     0
  7
Standard
140
4.5
170
     2
 62
     0
 63
     7
283
     0
274
    -2
284
     1
 64
     0
275
    -2
285
     1
 65
     0
276
    -2
286
     1
 66
     0
277
    -2
287
     1
 67
     0
278
    -2
288
     1
 68
     0
279
    -2
289
     1
 69
     0
  7
Standard
140
6.0
170
     5
 62
     0
 63
     7
283
     0
274
    -2
284
     1
 64
     0
275
    -2
285
     1
 65
     0
276
    -2
286
     1
 66
     0
277
    -2
287
     1
 67
     0
278
    -2
288
     1
 68
     0
279
    -2
289
     1
 69
     0
  7
Standard
140
4.5
170
     5
 62
     0
 63
     7
283
     0
274
    -2
284
     1
 64
     0
275
    -2
285
     1
 65
     0
276
    -2
286
     1
 66
     0
277
    -2
287
     1
 67
     0
278
    -2
288
     1
 68
     0
279
    -2
289
     1
 69
     0
  0
VISUALSTYLE
  5
F5
102
{ACAD_XDICTIONARY
360
28B0
102
}
102
{ACAD_REACTORS
330
EF
102
}
330
EF
100
AcDbVisualStyle
  2

 70
     4
 71
     0
 72
     2
 73
     1
 90
        0
 40
-0.6
 41
-30.0
 62
     5
 63
     7
 74
     1
 91
        4
 64
     7
 65
   257
 75
     1
175
     1
 42
1.0
 92
        0
 66
   257
 43
1.0
 76
     1
 77
     6
 78
     2
 67
     7
 79
     5
170
     0
171
     0
290
     0
174
     0
 93
        1
 44
0.0
173
     0
291
     0
 45
0.0
1001
ACAD
1000
AcDbSavedByObjectVersion
1070
     0
  0
VISUALSTYLE
  5
F7
102
{ACAD_XDICTIONARY
360
28B4
102
}
102
{ACAD_REACTORS
330
EF
102
}
330
EF
100
AcDbVisualStyle
  2

 70
     6
 71
     1
 72
     2
 73
     2
 90
        0
 40
-0.6
 41
-30.0
 62
     5
 63
     7
 74
     2
 91
        2
 64
     7
 65
   257
 75
     2
175
     1
 42
40.0
 92
        0
 66
   257
 43
1.0
 76
     1
 77
     6
 78
     2
 67
     7
 79
     3
170
     0
171
     0
290
     0
174
     0
 93
        1
 44
0.0
173
     0
291
     0
 45
0.0
1001
ACAD
1000
AcDbSavedByObjectVersion
1070
     0
  0
VISUALSTYLE
  5
F6
102
{ACAD_XDICTIONARY
360
28B2
102
}
102
{ACAD_REACTORS
330
EF
102
}
330
EF
100
AcDbVisualStyle
  2

 70
     5
 71
     0
 72
     2
 73
     1
 90
        0
 40
-0.6
 41
-30.0
 62
     5
 63
     7
 74
     1
 91
        4
 64
     7
 65
   257
 75
     1
175
     1
 42
1.0
 92
        0
 66
   257
 43
1.0
 76
     1
 77
     6
 78
     2
 67
     7
 79
     5
170
     0
171
     0
290
     0
174
     0
 93
        1
 44
0.0
173
     0
291
     0
 45
0.0
1001
ACAD
1000
AcDbSavedByObjectVersion
1070
     0
  0
VISUALSTYLE
  5
F4
102
{ACAD_XDICTIONARY
360
28AE
102
}
102
{ACAD_REACTORS
330
EF
102
}
330
EF
100
AcDbVisualStyle
  2

 70
     7
 71
     1
 72
     0
 73
     1
 90
        0
 40
-0.6
 41
-30.0
 62
     5
 63
     7
 74
     0
 91
        4
 64
     7
 65
   257
 75
     1
175
     1
 42
1.0
 92
        8
 66
     7
 43
1.0
 76
     1
 77
     6
 78
     2
 67
     7
 79
     5
170
     0
171
     0
290
     0
174
     0
 93
        1
 44
0.0
173
     0
291
     1
 45
0.0
1001
ACAD
1000
AcDbSavedByObjectVersion
1070
     0
  0
VISUALSTYLE
  5
FB
102
{ACAD_XDICTIONARY
360
28BC
102
}
102
{ACAD_REACTORS
330
EF
102
}
330
EF
100
AcDbVisualStyle
  2

 70
    12
 71
     2
 72
     2
 73
     1
 90
        0
 40
-0.6
 41
-30.0
 62
     5
 63
     7
 74
     1
 91
        4
 64
     7
 65
   257
 75
     1
175
     1
 42
1.0
 92
        8
 66
     7
 43
1.0
 76
     1
 77
     6
 78
     2
 67
     7
 79
     5
170
     0
171
     0
290
     0
174
     0
 93
        1
 44
50.0
173
     0
291
     1
 45
0.0
1001
ACAD
1000
AcDbSavedByObjectVersion
1070
     0
  0
VISUALSTYLE
  5
FF
102
{ACAD_XDICTIONARY
360
28C4
102
}
102
{ACAD_REACTORS
330
EF
102
}
330
EF
100
AcDbVisualStyle
  2

 70
    16
 71
     2
 72
     2
 73
     3
 90
        0
 40
-0.6
 41
-30.0
 62
     5
 63
     8
 74
     1
 91
        4
 64
     7
 65
   257
 75
     1
175
     1
 42
1.0
 92
        8
 66
     8
 43
1.0
 76
     1
 77
     6
 78
     2
 67
     7
 79
     5
170
     0
171
     0
290
     0
174
     0
 93
        1
 44
0.0
173
     0
291
     1
 45
0.0
1001
ACAD
1000
AcDbSavedByObjectVersion
1070
     0
  0
VISUALSTYLE
  5
F8
102
{ACAD_XDICTIONARY
360
28B6
102
}
102
{ACAD_REACTORS
330
EF
102
}
330
EF
100
AcDbVisualStyle
  2

 70
     9
 71
     3
 72
     2
 73
     1
 90
        0
 40
-0.6
 41
-30.0
 62
     5
 63
     7
 74
     2
 91
        2
 64
     7
 65
   257
 75
     1
175
     1
 42
40.0
 92
        8
 66
     7
 43
1.0
 76
     1
 77
     6
 78
     2
 67
     7
 79
     3
170
     0
171
     0
290
     0
174
     0
 93
        1
 44
0.0
173
     0
291
     0
 45
0.0
1001
ACAD
1000
AcDbSavedByObjectVersion
1070
     0
  0
VISUALSTYLE
  5
FA
102
{ACAD_XDICTIONARY
360
28BA
102
}
102
{ACAD_REACTORS
330
EF
102
}
330
EF
100
AcDbVisualStyle
  2

 70
    11
 71
     2
 72
     2
 73
     1
 90
        0
 40
-0.6
 41
-30.0
 62
     5
 63
     7
 74
     1
 91
        4
 64
     7
 65
   257
 75
     1
175
     1
 42
1.0
 92
        8
 66
     7
 43
1.0
 76
     1
 77
     6
 78
     2
 67
     7
 79
     5
170
     0
171
     0
290
     0
174
     0
 93
        1
 44
-50.0
173
     0
291
     1
 45
0.0
1001
ACAD
1000
AcDbSavedByObjectVersion
1070
     0
  0
VISUALSTYLE
  5
281D
102
{ACAD_XDICTIONARY
360
28E1
102
}
102
{ACAD_REACTORS
330
EF
102
}
330
EF
100
AcDbVisualStyle
  2

 70
    22
 71
     2
 72
     2
 73
     0
 90
        0
 40
-0.6
 41
-30.0
 62
     5
 63
     7
 74
     1
 91
        4
 64
     7
 65
   257
 75
     1
175
     1
 42
1.0
 92
        8
 66
     7
 43
1.0
 76
     1
 77
     6
 78
     2
 67
     7
 79
     5
170
     0
171
     0
290
     0
174
     0
 93
        1
 44
0.0
173
     0
291
     1
 45
0.0
1001
ACAD
1000
AcDbSavedByObjectVersion
1070
     0
  0
VISUALSTYLE
  5
FE
102
{ACAD_XDICTIONARY
360
28C2
102
}
102
{ACAD_REACTORS
330
EF
102
}
330
EF
100
AcDbVisualStyle
  2

 70
    15
 71
     2
 72
     2
 73
     1
 90
        0
 40
-0.6
 41
-30.0
 62
     5
 63
     7
 74
     1
 91
        4
 64
     7
 65
   257
 75
     1
175
     1
 42
1.0
 92
        8
 66
     7
 43
1.0
 76
     1
 77
     6
 78
     2
 67
     7
 79
     5
170
     0
171
     0
290
     0
174
     0
 93
        1
 44
0.0
173
     0
291
     1
 45
0.0
1001
ACAD
1000
AcDbSavedByObjectVersion
1070
     0
  0
VISUALSTYLE
  5
F0
102
{ACAD_XDICTIONARY
360
28A6
102
}
102
{ACAD_REACTORS
330
EF
102
}
330
EF
100
AcDbVisualStyle
  2

 70
     0
 71
     2
 72
     1
 73
     1
 90
        2
 40
-0.6
 41
30.0
 62
     5
 63
     7
 74
     0
 91
        4
 64
     7
 65
   257
 75
     1
175
     1
 42
1.0
 92
        8
 66
     7
 43
1.0
 76
     1
 77
     6
 78
     2
 67
     7
 79
     5
170
     0
171
     0
290
     0
174
     0
 93
        1
 44
0.0
173
     0
291
     1
 45
0.0
1001
ACAD
1000
AcDbSavedByObjectVersion
1070
     0
  0
VISUALSTYLE
  5
F1
102
{ACAD_XDICTIONARY
360
28A8
102
}
102
{ACAD_REACTORS
330
EF
102
}
330
EF
100
AcDbVisualStyle
  2

 70
     1
 71
     2
 72
     1
 73
     1
 90
        2
 40
-0.6
 41
30.0
 62
     5
 63
     7
 74
     1
 91
        4
 64
     7
 65
   257
 75
     1
175
     1
 42
1.0
 92
        0
 66
   257
 43
1.0
 76
     1
 77
     6
 78
     2
 67
     7
 79
     5
170
     0
171
     0
290
     0
174
     0
 93
        1
 44
0.0
173
     0
291
     1
 45
0.0
1001
ACAD
1000
AcDbSavedByObjectVersion
1070
     0
  0
VISUALSTYLE
  5
F2
102
{ACAD_XDICTIONARY
360
28AA
102
}
102
{ACAD_REACTORS
330
EF
102
}
330
EF
100
AcDbVisualStyle
  2

 70
     2
 71
     2
 72
     2
 73
     1
 90
        2
 40
-0.6
 41
30.0
 62
     5
 63
     7
 74
     0
 91
        4
 64
     7
 65
   257
 75
     1
175
     1
 42
1.0
 92
        0
 66
     7
 43
1.0
 76
     1
 77
     6
 78
     2
 67
     7
 79
     5
170
     0
171
     0
290
     0
174
     0
 93
        1
 44
0.0
173
     0
291
     1
 45
0.0
1001
ACAD
1000
AcDbSavedByObjectVersion
1070
     0
  0
VISUALSTYLE
  5
F3
102
{ACAD_XDICTIONARY
360
28AC
102
}
102
{ACAD_REACTORS
330
EF
102
}
330
EF
100
AcDbVisualStyle
  2

 70
     3
 71
     2
 72
     2
 73
     1
 90
        2
 40
-0.6
 41
30.0
 62
     5
 63
     7
 74
     1
 91
        4
 64
     7
 65
   257
 75
     1
175
     1
 42
1.0
 92
        0
 66
   257
 43
1.0
 76
     1
 77
     6
 78
     2
 67
     7
 79
     5
170
     0
171
     0
290
     0
174
     0
 93
        1
 44
0.0
173
     0
291
     1
 45
0.0
1001
ACAD
1000
AcDbSavedByObjectVersion
1070
     0
  0
VISUALSTYLE
  5
2815
102
{ACAD_XDICTIONARY
360
28D1
102
}
102
{ACAD_REACTORS
330
EF
102
}
330
EF
100
AcDbVisualStyle
  2

 70
     6
 71
     1
 72
     2
 73
     2
 90
        0
 40
-0.6
 41
-30.0
 62
     5
 63
     7
 74
     2
 91
        2
 64
     7
 65
   257
 75
     2
175
     1
 42
40.0
 92
        0
 66
   257
 43
1.0
 76
     1
 77
     6
 78
     2
 67
     7
 79
     3
170
     0
171
     0
290
     0
174
     0
 93
        1
 44
0.0
173
     0
291
     0
 45
0.0
1001
ACAD
1000
AcDbSavedByObjectVersion
1070
     0
  0
VISUALSTYLE
  5
281B
102
{ACAD_XDICTIONARY
360
28DD
102
}
102
{ACAD_REACTORS
330
EF
102
}
330
EF
100
AcDbVisualStyle
  2

 70
    20
 71
     2
 72
     2
 73
     0
 90
        0
 40
-0.6
 41
-30.0
 62
     5
 63
     7
 74
     1
 91
        4
 64
     7
 65
   257
 75
     1
175
     1
 42
1.0
 92
       10
 66
     7
 43
1.0
 76
     1
 77
     6
 78
     2
 67
     7
 79
     5
170
     0
171
     0
290
     0
174
     0
 93
        1
 44
0.0
173
     0
291
     1
 45
0.0
1001
ACAD
1000
AcDbSavedByObjectVersion
1070
     0
  0
VISUALSTYLE
  5
FD
102
{ACAD_XDICTIONARY
360
28C0
102
}
102
{ACAD_REACTORS
330
EF
102
}
330
EF
100
AcDbVisualStyle
  2

 70
    14
 71
     2
 72
     2
 73
     1
 90
        0
 40
-0.6
 41
-30.0
 62
     5
 63
     7
 74
     1
 91
        4
 64
     7
 65
   257
 75
     7
175
     7
 42
1.0
 92
        8
 66
     7
 43
1.0
 76
     1
 77
     6
 78
     2
 67
     7
 79
     5
170
     0
171
     0
290
     0
174
     0
 93
        1
 44
0.0
173
     0
291
     1
 45
0.0
1001
ACAD
1000
AcDbSavedByObjectVersion
1070
     0
  0
VISUALSTYLE
  5
281C
102
{ACAD_XDICTIONARY
360
28DF
102
}
102
{ACAD_REACTORS
330
EF
102
}
330
EF
100
AcDbVisualStyle
  2

 70
    21
 71
     2
 72
     2
 73
     0
 90
        0
 40
-0.6
 41
-30.0
 62
     5
 63
     7
 74
     1
 91
        4
 64
     7
 65
   257
 75
     1
175
     1
 42
1.0
 92
        9
 66
     7
 43
1.0
 76
     1
 77
     6
 78
     2
 67
     7
 79
     5
170
     0
171
     0
290
     0
174
     0
 93
        1
 44
0.0
173
     0
291
     1
 45
0.0
1001
ACAD
1000
AcDbSavedByObjectVersion
1070
     0
  0
VISUALSTYLE
  5
F9
102
{ACAD_XDICTIONARY
360
28B8
102
}
102
{ACAD_REACTORS
330
EF
102
}
330
EF
100
AcDbVisualStyle
  2

 70
     8
 71
     2
 72
     2
 73
     1
 90
        0
 40
-0.6
 41
-30.0
 62
     5
 63
     7
 74
     1
 91
        0
 64
     7
 65
   257
 75
     1
175
     1
 42
1.0
 92
        8
 66
     8
 43
1.0
 76
     1
 77
     6
 78
     2
 67
     7
 79
     5
170
     0
171
     0
290
     0
174
     0
 93
       13
 44
0.0
173
     0
291
     0
 45
0.0
1001
ACAD
1000
AcDbSavedByObjectVersion
1070
     0
  0
VISUALSTYLE
  5
281A
102
{ACAD_XDICTIONARY
360
28DB
102
}
102
{ACAD_REACTORS
330
EF
102
}
330
EF
100
AcDbVisualStyle
  2

 70
    27
 71
     2
 72
     2
 73
     1
 90
        2
 40
-0.6
 41
30.0
 62
     5
 63
     7
 74
     0
 91
        4
 64
     7
 65
   257
 75
     1
175
     1
 42
1.0
 92
        8
 66
   257
 43
1.0
 76
     1
 77
     6
 78
     2
 67
     8
 79
     3
170
     0
171
     0
290
     0
174
     0
 93
        5
 44
0.0
173
     0
291
     0
 45
0.0
1001
ACAD
1000
AcDbSavedByObjectVersion
1070
     0
  0
VISUALSTYLE
  5
2819
102
{ACAD_XDICTIONARY
360
28D9
102
}
102
{ACAD_REACTORS
330
EF
102
}
330
EF
100
AcDbVisualStyle
  2

 70
    26
 71
     2
 72
     2
 73
     1
 90
        2
 40
-0.6
 41
30.0
 62
     5
 63
     7
 74
     1
 91
       10
 64
     7
 65
   257
 75
     2
175
     1
 42
1.0
 92
        8
 66
   257
 43
1.0
 76
     1
 77
     6
 78
     2
 67
     7
 79
     3
170
     0
171
     0
290
     0
174
     0
 93
        5
 44
0.0
173
     0
291
     0
 45
0.0
1001
ACAD
1000
AcDbSavedByObjectVersion
1070
     0
  0
VISUALSTYLE
  5
2816
102
{ACAD_XDICTIONARY
360
28D3
102
}
102
{ACAD_REACTORS
330
EF
102
}
330
EF
100
AcDbVisualStyle
  2

 70
    23
 71
     2
 72
     2
 73
     3
 90
        0
 40
-0.6
 41
-30.0
 62
     5
 63
     7
 74
     2
 91
        2
 64
     7
 65
     7
 75
     1
175
     1
 42
40.0
 92
        8
 66
     7
 43
1.0
 76
     1
 77
     6
 78
     2
 67
     7
 79
     3
170
     0
171
     0
290
     0
174
     0
 93
        1
 44
0.0
173
     0
291
     0
 45
0.0
1001
ACAD
1000
AcDbSavedByObjectVersion
1070
     0
  0
VISUALSTYLE
  5
2817
102
{ACAD_XDICTIONARY
360
28D5
102
}
102
{ACAD_REACTORS
330
EF
102
}
330
EF
100
AcDbVisualStyle
  2

 70
    24
 71
     1
 72
     2
 73
     2
 90
        0
 40
-0.6
 41
-30.0
 62
     5
 63
     7
 74
     2
 91
        2
 64
     7
 65
     7
 75
     1
175
     1
 42
40.0
 92
       11
 66
     7
 43
1.0
 76
     1
 77
     6
 78
     2
 67
     7
 79
     6
170
     0
171
     0
290
     0
174
     0
 93
        1
 44
0.0
173
     0
291
     0
 45
0.0
1001
ACAD
1000
AcDbSavedByObjectVersion
1070
     0
  0
VISUALSTYLE
  5
FC
102
{ACAD_XDICTIONARY
360
28BE
102
}
102
{ACAD_REACTORS
330
EF
102
}
330
EF
100
AcDbVisualStyle
  2

 70
    13
 71
     2
 72
     2
 73
     1
 90
        0
 40
-0.6
 41
-30.0
 62
     5
 63
     7
 74
     1
 91
        4
 64
     7
 65
   257
 75
     1
175
     1
 42
1.0
 92
       12
 66
     7
 43
1.0
 76
     1
 77
     6
 78
     2
 67
     7
 79
     5
170
     0
171
     0
290
     0
174
     0
 93
        1
 44
0.0
173
     0
291
     1
 45
0.0
1001
ACAD
1000
AcDbSavedByObjectVersion
1070
     0
  0
VISUALSTYLE
  5
2814
102
{ACAD_XDICTIONARY
360
28CF
102
}
102
{ACAD_REACTORS
330
EF
102
}
330
EF
100
AcDbVisualStyle
  2

 70
     5
 71
     0
 72
     2
 73
     0
 90
        0
 40
-0.6
 41
-30.0
 62
     5
 63
     7
 74
     1
 91
        4
 64
     7
 65
   257
 75
     1
175
     1
 42
1.0
 92
        0
 66
   257
 43
1.0
 76
     1
 77
     6
 78
     2
 67
     7
 79
     3
170
     0
171
     0
290
     0
174
     0
 93
        1
 44
0.0
173
     0
291
     0
 45
0.0
1001
ACAD
1000
AcDbSavedByObjectVersion
1070
     0
  0
VISUALSTYLE
  5
2818
102
{ACAD_XDICTIONARY
360
28D7
102
}
102
{ACAD_REACTORS
330
EF
102
}
330
EF
100
AcDbVisualStyle
  2

 70
    25
 71
     2
 72
     2
 73
     1
 90
        1
 40
0.5
 41
-30.0
 62
     5
 63
     7
 74
     1
 91
        0
 64
     7
 65
   257
 75
     1
175
     1
 42
1.0
 92
        8
 66
     7
 43
1.0
 76
     1
 77
     6
 78
     2
 67
     7
 79
     3
170
     0
171
     0
290
     0
174
     0
 93
       13
 44
0.0
173
     0
291
     0
 45
0.0
1001
ACAD
1000
AcDbSavedByObjectVersion
1070
     0
  0
DICTIONARYVAR
  5
2839
102
{ACAD_REACTORS
330
5E
102
}
330
5E
100
DictionaryVariables
280
     0
  1
1:1
  0
DICTIONARYVAR
  5
2838
102
{ACAD_REACTORS
330
5E
102
}
330
5E
100
DictionaryVariables
280
     0
  1
STANDARD
  0
DICTIONARYVAR
  5
84
102
{ACAD_REACTORS
330
5E
102
}
330
5E
100
DictionaryVariables
280
     0
  1
STANDARD
  0
DICTIONARYVAR
  5
5F
102
{ACAD_REACTORS
330
5E
102
}
330
5E
100
DictionaryVariables
280
     0
  1
2
  0
DICTIONARYVAR
  5
63
102
{ACAD_REACTORS
330
5E
102
}
330
5E
100
DictionaryVariables
280
     0
  1
1
  0
DICTIONARYVAR
  5
70A
102
{ACAD_REACTORS
330
5E
102
}
330
5E
100
DictionaryVariables
280
     0
  1
0
  0
DICTIONARYVAR
  5
289E
102
{ACAD_REACTORS
330
5E
102
}
330
5E
100
DictionaryVariables
280
     0
  1
80.000000
  0
DICTIONARYVAR
  5
289D
102
{ACAD_REACTORS
330
5E
102
}
330
5E
100
DictionaryVariables
280
     0
  1
5.000000
  0
DICTIONARYVAR
  5
709
102
{ACAD_REACTORS
330
5E
102
}
330
5E
100
DictionaryVariables
280
     0
  1
127
  0
DICTIONARYVAR
  5
289F
102
{ACAD_REACTORS
330
5E
102
}
330
5E
100
DictionaryVariables
280
     0
  1
2
  0
DICTIONARY
  5
1CC9
330
1CC8
100
AcDbDictionary
280
     1
281
     1
  3
ACAD_XREC_ROUNDTRIP
360
28CA
  3
ADSK_XREC_LAYOUTTHUMBNAIL
360
1CCA
  0
DICTIONARY
  5
28A3
330
22
100
AcDbDictionary
280
     1
281
     1
  3
ACAD_XREC_ROUNDTRIP
360
28A4
  0
DICTIONARY
  5
718
330
ED
100
AcDbDictionary
280
     1
281
     1
  3
ACAD_XREC_ROUNDTRIP
360
719
  0
DICTIONARY
  5
716
330
EC
100
AcDbDictionary
280
     1
281
     1
  3
ACAD_XREC_ROUNDTRIP
360
717
  0
DICTIONARY
  5
71A
330
EE
100
AcDbDictionary
280
     1
281
     1
  3
ACAD_XREC_ROUNDTRIP
360
71B
  0
DICTIONARY
  5
283E
330
7F
100
AcDbDictionary
280
     1
281
     1
  3
ACAD_ROUNDTRIP_2008_TABLESTYLE_CELLSTYLEMAP
360
28A0
  3
ACAD_XREC_ROUNDTRIP
360
28A5
  0
DICTIONARY
  5
28B0
330
F5
100
AcDbDictionary
280
     1
281
     1
  3
ACAD_XREC_ROUNDTRIP
360
28B1
  0
DICTIONARY
  5
28B4
330
F7
100
AcDbDictionary
280
     1
281
     1
  3
ACAD_XREC_ROUNDTRIP
360
28B5
  0
DICTIONARY
  5
28B2
330
F6
100
AcDbDictionary
280
     1
281
     1
  3
ACAD_XREC_ROUNDTRIP
360
28B3
  0
DICTIONARY
  5
28AE
330
F4
100
AcDbDictionary
280
     1
281
     1
  3
ACAD_XREC_ROUNDTRIP
360
28AF
  0
DICTIONARY
  5
28BC
330
FB
100
AcDbDictionary
280
     1
281
     1
  3
ACAD_XREC_ROUNDTRIP
360
28BD
  0
DICTIONARY
  5
28C4
330
FF
100
AcDbDictionary
280
     1
281
     1
  3
ACAD_XREC_ROUNDTRIP
360
28C5
  0
DICTIONARY
  5
28B6
330
F8
100
AcDbDictionary
280
     1
281
     1
  3
ACAD_XREC_ROUNDTRIP
360
28B7
  0
DICTIONARY
  5
28BA
330
FA
100
AcDbDictionary
280
     1
281
     1
  3
ACAD_XREC_ROUNDTRIP
360
28BB
  0
DICTIONARY
  5
28E1
330
281D
100
AcDbDictionary
280
     1
281
     1
  3
ACAD_XREC_ROUNDTRIP
360
28E2
  0
DICTIONARY
  5
28C2
330
FE
100
AcDbDictionary
280
     1
281
     1
  3
ACAD_XREC_ROUNDTRIP
360
28C3
  0
DICTIONARY
  5
28A6
330
F0
100
AcDbDictionary
280
     1
281
     1
  3
ACAD_XREC_ROUNDTRIP
360
28A7
  0
DICTIONARY
  5
28A8
330
F1
100
AcDbDictionary
280
     1
281
     1
  3
ACAD_XREC_ROUNDTRIP
360
28A9
  0
DICTIONARY
  5
28AA
330
F2
100
AcDbDictionary
280
     1
281
     1
  3
ACAD_XREC_ROUNDTRIP
360
28AB
  0
DICTIONARY
  5
28AC
330
F3
100
AcDbDictionary
280
     1
281
     1
  3
ACAD_XREC_ROUNDTRIP
360
28AD
  0
DICTIONARY
  5
28D1
330
2815
100
AcDbDictionary
280
     1
281
     1
  3
ACAD_XREC_ROUNDTRIP
360
28D2
  0
DICTIONARY
  5
28DD
330
281B
100
AcDbDictionary
280
     1
281
     1
  3
ACAD_XREC_ROUNDTRIP
360
28DE
  0
DICTIONARY
  5
28C0
330
FD
100
AcDbDictionary
280
     1
281
     1
  3
ACAD_XREC_ROUNDTRIP
360
28C1
  0
DICTIONARY
  5
28DF
330
281C
100
AcDbDictionary
280
     1
281
     1
  3
ACAD_XREC_ROUNDTRIP
360
28E0
  0
DICTIONARY
  5
28B8
330
F9
100
AcDbDictionary
280
     1
281
     1
  3
ACAD_XREC_ROUNDTRIP
360
28B9
  0
DICTIONARY
  5
28DB
330
281A
100
AcDbDictionary
280
     1
281
     1
  3
ACAD_XREC_ROUNDTRIP
360
28DC
  0
DICTIONARY
  5
28D9
330
2819
100
AcDbDictionary
280
     1
281
     1
  3
ACAD_XREC_ROUNDTRIP
360
28DA
  0
DICTIONARY
  5
28D3
330
2816
100
AcDbDictionary
280
     1
281
     1
  3
ACAD_XREC_ROUNDTRIP
360
28D4
  0
DICTIONARY
  5
28D5
330
2817
100
AcDbDictionary
280
     1
281
     1
  3
ACAD_XREC_ROUNDTRIP
360
28D6
  0
DICTIONARY
  5
28BE
330
FC
100
AcDbDictionary
280
     1
281
     1
  3
ACAD_XREC_ROUNDTRIP
360
28BF
  0
DICTIONARY
  5
28CF
330
2814
100
AcDbDictionary
280
     1
281
     1
  3
ACAD_XREC_ROUNDTRIP
360
28D0
  0
DICTIONARY
  5
28D7
330
2818
100
AcDbDictionary
280
     1
281
     1
  3
ACAD_XREC_ROUNDTRIP
360
28D8
  0
XRECORD
  5
28CA
102
{ACAD_REACTORS
330
1CC9
102
}
330
1CC9
100
AcDbXrecord
280
     1
102
SHADEPLOT
 70
     0
102
SHADEPLOTRESLEVEL
 70
     2
102
SHADEPLOTCUSTOMDPI
 70
   300
  0
XRECORD
  5
1CCA
102
{ACAD_REACTORS
330
1CC9
102
}
330
1CC9
100
AcDbXrecord
280
     1
310
28000000B40000007F00000001000800000000004C59000000000000000000000001000000000000FFFFFF0000000000FFFFFF000000000000000000000000000000000000000000000000000000000000000000330000006600000099000000CC000000FF00000000330000333300006633000099330000CC330000FF3300
310
0000660000336600006666000099660000CC660000FF66000000990000339900006699000099990000CC990000FF99000000CC000033CC000066CC000099CC0000CCCC0000FFCC000000FF000033FF000066FF000099FF0000CCFF0000FFFF000000003300330033006600330099003300CC003300FF003300003333003333
310
33006633330099333300CC333300FF33330000663300336633006666330099663300CC663300FF66330000993300339933006699330099993300CC993300FF99330000CC330033CC330066CC330099CC3300CCCC3300FFCC330000FF330033FF330066FF330099FF3300CCFF3300FFFF330000006600330066006600660099
310
006600CC006600FF00660000336600333366006633660099336600CC336600FF33660000666600336666006666660099666600CC666600FF66660000996600339966006699660099996600CC996600FF99660000CC660033CC660066CC660099CC6600CCCC6600FFCC660000FF660033FF660066FF660099FF6600CCFF6600
310
FFFF660000009900330099006600990099009900CC009900FF00990000339900333399006633990099339900CC339900FF33990000669900336699006666990099669900CC669900FF66990000999900339999006699990099999900CC999900FF99990000CC990033CC990066CC990099CC9900CCCC9900FFCC990000FF99
310
0033FF990066FF990099FF9900CCFF9900FFFF99000000CC003300CC006600CC009900CC00CC00CC00FF00CC000033CC003333CC006633CC009933CC00CC33CC00FF33CC000066CC003366CC006666CC009966CC00CC66CC00FF66CC000099CC003399CC006699CC009999CC00CC99CC00FF99CC0000CCCC0033CCCC0066CC
310
CC0099CCCC00CCCCCC00FFCCCC0000FFCC0033FFCC0066FFCC0099FFCC00CCFFCC00FFFFCC000000FF003300FF006600FF009900FF00CC00FF00FF00FF000033FF003333FF006633FF009933FF00CC33FF00FF33FF000066FF003366FF006666FF009966FF00CC66FF00FF66FF000099FF003399FF006699FF009999FF00CC
310
99FF00FF99FF0000CCFF0033CCFF0066CCFF0099CCFF00CCCCFF00FFCCFF0000FFFF0033FFFF0066FFFF0099FFFF00CCFFFF00FFFFFF00000000000D0D0D001A1A1A00282828003535350043434300505050005D5D5D006B6B6B00787878008686860093939300A1A1A100AEAEAE00BBBBBB00C9C9C900D6D6D600E4E4E400
310
F1F1F100FFFFFF0000000000000000000000000000000000000000000000000000000000000000000000000000000000E2E2E2E2E2E2E2E2E2E2E2E2E2E2E2E2E2E2E2E2E2E2E2E2E2E2E2E2E2E2E2E2E2E2E2E2E2E2E2E2E2E2E2E2E2E2E2E2E2E2E2E2E2E2E2E2E2E2E2E2E2E2E2E2E2E2E2E2E2E2E2E2E2E2E2E2E2E2E2
310
E2E2E2E2E2E2E2E2E2E2E2E2E2E2E2E2E2E2E2E2E2E2E2E2E2E2E2E2E2E2E2E2E2E2E2E2E2E2E2E2E2E2E2E2E2E2E2E2E2E2E2E2E2E2E2E2E2E2E2E2E2E2E2E2E2E2E2E2E2E2E2E2E2E2E2E2E2E2E2E2E2E2E2E2E2E2E2E2E2E2E2E2E2E2E2E2E2E2E2E2EFE2F5F5F5F5F5F5F5F5F5F5F5F5F5F5F5F5F5F5F5F5F5F5F5F5F5
310
F5F5F5F5F5F5F5F5F5F5F5F5F5F5F5F5F5F5F5F5F5F5F5F5F5F5F5F5F5F5F5F5F5F5F5F5F5F5F5F5F5F5F5F5F5F5F5F5F5F5F5F5F5F5F5F5F5F5F5F5F5F5F5F5F5F5F5F5F5F5F5F5F5F5F5F5F5F5F5F5F5F5F5F5F5F5F5F5F5F5F5F5F5F5F5F5F5F5F5F5F5F5F5F5F5F5F5F5F5F5F5F5F5F5F5F5F5F5F5F5F5F5F5F5F5F5F5
310
F5F5F5F5F5F5F5F5F5F5F5F5F5F5F5F5F5F5F5F5F5F5F5F5F5E2EFE2F5E2E2E2E2E2E2E2E2F5F5F5F5F5F5F5F5F5E2E2E2E2E2E2E2E2E2E2E2E2E2E2E2E2F5F5F5F5F5F5F5F5F5E2E2E2E2E2E2E2E2E2E2E2E2E2E2E2E2F5F5F5F5F5F5F5F5F5E2E2E2E2E2E2E2E2E2E2E2E2E2E2E2E2F5F5F5F5F5F5F5F5F5E2E2E2E2E2E2
310
E2E2E2E2E2E2E2E2E2E2F5F5F5F5F5F5F5F5F5E2E2E2E2E2E2E2E2E2E2E2E2E2E2E2E2F5F5F5F5F5F5F5F5F5E2E2E2E2E2E2E2E2E2E2E2E2E2E2E2E2F5F5F5F5F5F5F5F5F5E2E2E2E2E2E2E2E2F5E2EFE2F5E2E2E2E2E2E2E2E2E2E2E2E2E2E2E2E2E2E2E2E2E2E2E2E2E2E2E2E2E2E2E2E2E2E2E2E2E2E2E2E2E2E2E2E2E2
310
E2E2E2E2E2E2E2E2E2E2E2E2E2E2E2E2E2E2E2E2E2E2E2E2E2E2E2E2E2E2E2E2E2E2E2E2E2E2E2E2E2E2E2E2E2E2E2E2E2E2E2E2E2E2E2E2E2E2E2E2E2E2E2E2E2E2E2E2E2E2E2E2E2E2E2E2E2E2E2E2E2E2E2E2E2E2E2E2E2E2E2E2E2E2E2E2E2E2E2E2E2E2E2E2E2E2E2E2E2E2E2E2E2E2E2E2E2E2E2E2E2E2E2E2E2E2E2
310
E2E2E2F5E2EFE2F5E2E2F5F5F5F5F5F5F5F5F5F5F5F5F5F5F5F5F5F5F5F5F5F5F5F5F5F5F5F5F5F5F5F5F5F5F5F5F5F5F5F5F5F5F5F5F5F5F5F5F5F5F5F5F5F5F5F5F5F5F5F5F5F5F5F5F5F5F5F5F5F5F5F5F5F5F5F5F5F5F5F5F5F5F5F5F5F5F5F5F5F5F5F5F5F5F5F5F5F5F5F5F5F5F5F5F5F5F5F5F5F5F5F5F5F5F5F5F5
310
F5F5F5F5F5F5F5F5F5F5F5F5F5F5F5F5F5F5F5F5F5F5F5F5F5F5F5F5F5F5F5F5F5F5F5F5F5F5F5F5F5F5F5F5F5F5F5F5F5F5F5F5F5F5E2E2F5E2EFE2F5E2E2F5F5F5F5F5F5F5F5F5F5F5F5F5F5F5F5F5F5F5F5F5F5F5F5F5F5F5F5F5F5F5F5F5F5F5F5F5F5F5F5F5F5F5F5F5F5F5F5F5F5F5F5F5F5F5F5F5F5F5F5F5F5F5F5
310
F5F5F5F5F5F5F5F5F5F5F5F5F5F5F5F5F5F5F5F5F5F5F5F5F5F5F5F5F5F5F5F5F5F5F5F5F5F5F5F5F5F5F5F5F5F5F5F5F5F5F5F5F5F5F5F5F5F5F5F5F5F5F5F5F5F5F5F5F5F5F5F5F5F5F5F5F5F5F5F5F5F5F5F5F5F5F5F5F5F5F5F5F5F5F5F5F5F5F5F5F5F5F5F5F5F5F5E2E2F5E2EFE2F5E2E2F5F5F5F5F5F5F5F5F5F5F5
310
F5F5F5F5F5F5F5F5F5F5F5F5F5F5F5F5F5F5F5F5F5F5F5F5F5F5F5F5F5F5F5F5F5F5F5F5F5F5F5F5F5F5F5F5F5F5F5F5F5F5F5F5F5F5F5F5F5F5F5F5F5F5F5F5F5F5F5F5F5F5F5F5F5F5F5F5F5F5F5F5F5F5F5F5F5F5F5F5F5F5F5F5F5F5F5F5F5F5F5F5F5F5F5F5F5F5F5F5F5F5F5F5F5F5F5F5F5F5F5F5F5F5F5F5F5F5F5
310
F5F5F5F5F5F5F5F5F5F5F5F5F5F5F5F5F5F5F5F5F5F5F5F5F5F5F5F5F5F5F5F5F5E2E2F5E2EFE2F5E2E2F5F5F5F5F5F5F5F5F5F5F5F5F5F5F5F5F5F5F5F5F5F5F5F5F5F5F5F5F5F5F5F5F5F5F5F5F5F5F5F5F5F5F5F5F5F5F5F5F5F5F5F5F5F5F5F5F5F5F5F5F5F5F5F5F5F5F5F5F5F5F5F5F5F5F5F5F5F5F5F5F5F5F5F5F5
310
F5F5F5F5F5F5F5F5F5F5F5F5F5F5F5F5F5F5F5F5F5F5F5F5F5F5F5F5F5F5F5F5F5F5F5F5F5F5F5F5F5F5F5F5F5F5F5F5F5F5F5F5F5F5F5F5F5F5F5F5F5F5F5F5F5F5F5F5F5F5F5F5F5F5F5F5F5F5F5F5F5F5F5F5F5F5E2E2F5E2EFE2F5E2E2F5F5F5F5F5F5F5F5F5F5F5F5F5F5F5F5F5F5F5F5F5F5F5F5F5F5F5F5F5F5F5F5
310
F5F5F5F5F5F5F5F5F5F5F5F5F5F5F5F5F5F5F5F5F5F5F5F5F5F5F5F5F5F5F5F5F5F5F5F5F5F5F5F5F5F5F5F5F5F5F5F5F5F5F5F5F5F5F5F5F5F5F5F5F5F5F5F5F5F5F5F5F5F5F5F5F5F5F5F5F5F5F5F5F5F5F5F5F5F5F5F5F5F5F5F5F5F5F5F5F5F5F5F5F5F5F5F5F5F5F5F5F5F5F5F5F5F5F5F5F5F5F5F5F5F5F5F5F5F5F5
310
F5F5F5F5F5F5F5F5F5F5F5F5E2E2F5E2EFE2F5E2E2F5F5F5F5F5F5F5F5F5F5F5F5F5F5F5F5F5F5F5F5F5F5F5F5F5F5F5F5F5F5F5F5F5F5F5F5F5F5F5F5F5F5F5F5F5F5F5F5F5F5F5F5F5F5F5F5F5F5F5F5F5F5F5F5F5F5F5F5F5F5F5F5F5F5F5F5F5F5F5F5F5F5F5F5F5F5F5F5F5F5F5F5F5F5F5F5F5F5F5F5F5F5F5F5F5F5
310
F5F5F5F5F5F5F5F5F5F5F5F5F5F5F5F5F5F5F5F5F5F5F5F5F5F5F5F5F5F5F5F5F5F5F5F5F5F5F5F5F5F5F5F5F5F5F5F5F5F5F5F5F5F5F5F5F5F5F5F5F5F5F5F5F5E2E2F5E2EFE2F5F5E2F5F5F5F5F5F5F5F5F5F5F5F5F5F5F5F5F5F5F5F5F5F5F5F5F5F5F5F5F5F5F5F5F5F5F5F5F5F5F5F5F5F5F5F5F5F5F5F5F5F5F5F5F5
310
F5F5F5F5F5F5F5F5F5F5F5F5F5F5F5F5F5F5F5F5F5F5F5F5F5F5F5F5F5F5F5F5F5F5F5F5F5F5F5F5F5F5F5F5F5F5F5F5F5F5F5F5F5F5F5F5F5F5F5F5F5F5F5F5F5F5F5F5F5F5F5F5F5F5F5F5F5F5F5F5F5F5F5F5F5F5F5F5F5F5F5F5F5F5F5F5F5F5F5F5F5F5F5F5F5F5F5F5F5F5F5F5F5F5F5F5F5F5E2F5F5E2EFE2F5F5E2
310
F5F5F5F5F5F5F5F5F5F5F5F5F5F5F5F5F5F5F5F5F5F5F5F5F5F5F5F5F5F5F5F5F5F5F5F5F5F5F5F5F5F5F5F5F5F5F5F5F5F5F5F5F5F5F5F5F5F5F5F5F5F5F5F5F5F5F5F5F5F5F5F5F5F5F5F5F5F5F5F5F5F5F5F5F5F5F5F5F5F5F5F5F5F5F5F5F5F5F5F5F5F5F5F5F5F5F5F5F5F5F5F5F5F5F5F5F5F5F5F5F5F5F5F5F5F5F5
310
F5F5F5F5F5F5F5F5F5F5F5F5F5F5F5F5F5F5F5F5F5F5F5F5F5F5F5F5F5F5F5F5F5F5F5F5F5F5F5F5F5F5F5F5E2F5F5E2EFE2F5F5E2F5F5F5F5F5F5F5F5F5F5BEF5F5F5BEF5F5F5F5F5F5F5F5F5F5F5F5F5F5F5F5F5F5F5F5F5F5F5F5F5F5F5F5F5F5F5F5F5F5F5F5F5F5F5F5F5F5F5F5F5F5F5F5F5BEF5F5F5F5F5F5F5F5F5
310
F5F5F5F5F5F5F5F5F5F5F5F5F5F5F5F5F5F5F5F5F5F5F5F5F5F5F5BEF5F5BEF5F5F5F5F5F5F5F5F5F5F5F5F5F5F5F5F5F5F5F5F5F5F5F5F5F5F5F5F5F5F5F5F5F5F5F5F5F5F5F5F5F5F5F5F5F5F5F5F5F5F5F5F5F5F5F5F5F5F5F5F5F5F5F5F5F5E2F5F5E2EFE2F5F5E2F5F5F5F5F5F5F5F5F5BEBEBEBEBEBEBEF5F5F5F5F5
310
F5F5F50F0F0F0F0F0F0F0F0F0F0F0F0F0F0F0F0F0F0F0F0F0F0F0F0F0F0F0F0FF5F5F5F5F5BEBEBEBEBEBEBEF5F5F5F5F5F5F5F5F5F5F5F5F5F5F5F5F5F5F5F5F5F5F5F5F5F5F5F5F5F5F5F5F5F5BEBEBEBEBEBEBEF5F5F5F5F5F5F5F50F0F0F0F0F0F0F0F0F0F0F0F0F0F0F0F0F0F0F0F0F0F0F0F0F0F0F0F0F0F0F0F0F0F
310
F5F5F5F5F5F5F5F5F5F5F5F5F5F5F5F5F5F5F5F5F5F5F5E2F5F5E2EFE2F5F5E2F5F5F5F5F5F5F5F5F5BEBEF5BEBEF5F5F5F5F5F5F5F5F5F50FF50FF5F50F0FF50FF50FF5F50FF50FF5F5F50F0FF50F0FF5F5F50F0FF5F5F5F5F5F5F5F5F5BEBEF5F5F5F5F5F5F5F5F5F5F5F5F5F5F5F5F5F5F5F5F5F5F5F5F5F5F5F5F5F5F5
310
F5F5F5F5BEBEF5BEBEF5F5F5F5F5F5F5F5F5F50FF50FF50FF50FF50FF50FF5F50FF50FF5F5F50F0FF5F50FF50FF5F5F50FF50FF50FF5F5F5F5F5F5F5F5F5F5F5F5F5F5F5F5F5F5F5F5F5F5F5E2F5F5E2EFE2F5F5E2F5F5F5F5F5F5F5F5F5F5BEF5F5BEF5F5F5F5F5F5F5F5F5F50F0FF50FF5F50F0FF50FF5F50FF50FF5F5F5
310
0F0F0FF5F50F0FF5F50F0FF5F5F5F5F5F5F5F5F5F5BEF5F5F5F5F5F5F5F5F5F5F5F5F5F5F5F5F5F5F5F5F5F5F5F5F5F5F5F5F5F5F5F5F5F5F5F5BEF5F5BEF5F5F5F5F5F5F5F5F5F50FF5F50FF50F0F0FF50FF5F50FF50FF5F5F50F0F0F0FF5F50FF50FF5F5F50FF50F0FF5F5F5F5F5F5F5F5F5F5F5F5F5F5F5F5F5F5F5F5F5
310
F5F5E2F5F5E2EFE2F5F5E2F5F5F5F5F5F5F5F5F5F5BEF5F5BEF5F5F5F5F5F5F5F5F5F50FF50FF50FF50FF50FF5F50FF50FF5F5F50F0FF50FF5F5F50F0FF5F50FF5F5F5F5F5F5F5F5F5F5BEF5F5F5F5F5F5F5F5F5F5F5F5F5F5F5F5F5F5F5F5F5F5F5F5F5F5F5F5F5F5F5F5F5F5F5F5BEF5F5BEF5F5F5F5F5F5F5F5F5F50FF5
310
F5F50FF50FF50FF5F50FF50FF5F5F50F0FF50FF50FF5F50FF50FF5F50FF50F0FF5F5F5F5F5F5F5F5F5F5F5F5F5F5F5F5F5F5F5F5F5F5F5E2F5F5E2EFE2F5F5E2F5F5F5F5F5F5F5F5F5F5BEF5F5BEF5F5F5F5F5F5F5F5F5F50FF5F50FF50F0F0FF5F50FF50FF5F5F50F0FF5F50F0FF5F5F50F0FF50FF5F5F5F5F5F5F5F5F5F5
310
BEF5F5F5F5F5F5F5F5F5F5F5F5F5F5F5F5F5F5F5F5F5F5F5F5F5F5F5F5F5F5F5F5F5F5F5F5BEF5F5BEF5F5F5F5F5F5F5F5F5F50F0FF5F5F50F0F0FF5F50FF50FF5F5F50F0FF5F50F0FF50FF5F50FF50FF5F50FF50FF5F5F5F5F5F5F5F5F5F5F5F5F5F5F5F5F5F5F5F5F5F5F5E2F5F5E2EFE2F5F5E2F5F5F5F5F5F5F5F5F5F5
310
BEF5F5BEF5F5F5F5F5F5F5F5F5F50F0FF5F50FF50FF5F5F50F0FF5F5F50F0FF5F5F50FF50FF5F50FF50F0FF5F5F5F5F5F5F5F5F5F5BEF5F5F5F5F5F5F5F5F5F5F5F5F5F5F5F5F5F5F5F5F5F5F5F5F5F5F5F5F5F5F5F5F5F5F5F5BEF5F5BEF5F5F5F5F5F5F5F5F5F50F0F0FF5F5F50FF5F5F50F0FF5F5F50F0FF5F5F50FF50F
310
F50FF5F50FF50FF5F50F0FF5F5F5F5F5F5F5F5F5F5F5F5F5F5F5F5F5F5F5F5F5F5F5E2F5F5E2EFE2F5E2E2F5F5F5F5F5F5F5F5F5F5BEF5F5BEF5F5F5F5F5F5F5F5F5F50FF50FF5F50F0FF5F50F0FF5F5F50F0FF5F5F50F0F0FF50FF5F50FF50FF5F5F5F5F5F5F5F5F5F5BEF5F5F5F5F5F5F5F5F5F5F5F5F5F5F5F5F5F5F5F5
310
F5F5F5F5F5F5F5F5F5F5F5F5F5F5F5F5BEF5F5BEF5F5F5F5F5F5F5F5F5F50FF50F0FF5F50FF5F50F0FF5F5F50F0FF5F5F50F0FF5F50FF50FF5F50FF50FF5F50FF5F5F5F5F5F5F5F5F5F5F5F5F5F5F5F5F5F5F5F5F5F5F5E2E2F5E2EFE2F5E2E2F5F5F5F5F5F5F5F5F5F5BEF5F5BEF5F5F5F5F5F5F5F5F5F50F0FF50FF5F50F
310
F50F0FF5F5F50FF50FF5F50FF50FF50FF50FF5F50F0FF5F5F5F5F5F5F5F5F5F5BEF5F5F5F5F5F5F5F5F5F5F5F5F5F5F5F5F5F5F5F5F5F5F5F5F5F5F5F5F5F5F5F5F5F5F5F5BEF5F5BEF5F5F5F5F5F5F5F5F5F50FF5F50F0FF50FF50F0FF5F5F50FF50FF5F50FF50FF5F5F50FF50FF5F50FF50FF50FF5F5F5F5F5F5F5F5F5F5
310
F5F5F5F5F5F5F5F5F5F5F5F5F5E2E2F5E2EFE2F5E2E2F5F5F5F5F5F5F5F5F5F5BEBEBEBEF5F5F5F5F5F5F5F5F5F50FF50FF50FF50F0F0FF5F5F50FF50FF5F50FF50F0FF5F50FF50FF5F50FF5F5F5F5F5F5F5F5BEBEBEF5F5F5F5F5F5F5F5F5F5F5F5F5F5F5F5F5F5F5F5F5F5F5F5F5F5F5F5F5F5F5F5F5F5F5F5BEBEBEBEF5
310
F5F5F5F5F5F5F5F5F50FF5F50FF50F0F0F0FF5F5F50FF50FF5F50FF50F0F0FF5F5F50F0FF5F5F50FF50F0FF5F5F5F5F5F5F5F5F5F5F5F5F5F5F5F5F5F5F5F5F5F5F5E2E2F5E2EFE2F5E2E2F5F5F5F5F5F5F5F5F5F5BEBEBEBEF5F5F5F5F5F5F5F5F5F50FF5F50FF50F0F0FF5F5F50FF50FF5F50FF50FF50F0FF5F50FF50FF5
310
0FF5F5F5F5F5F5F5F5BEBEBEF5F5F5F5F5F5F5F5F5F5F5F5F5F5F5F5F5F5F5F5F5F5F5F5F5F5F5F5F5F5F5F5F5F5F5F5BEBEBEBEF5F5F5F5F5F5F5F5F5F50F0FF5F50FF50F0FF5F5F50FF50FF5F50FF50FF50FF50FF5F5F50F0FF5F5F50FF50FF5F5F5F5F5F5F5F5F5F5F5F5F5F5F5F5F5F5F5F5F5F5F5E2E2F5E2EFE2F5E2
310
E2F5F5F5F5F5F5F5F5BEBEBEBEBEBEF5F5F5F5F5F5F5F5F5F50FF5F5F50FF50FF5F5F50FF50FF5F50FF50FF5F50FF50FF5F50FF50F0FF5F5F5F5F5F5F5F5BEBEBEF5F5F5F5F5F5F5F5F5F5F5F5F5F5F5F5F5F5F5F5F5F5F5F5F5F5F5F5F5F5F5F5F5F5BEBEBEBEBEBEF5F5F5F5F5F5F5F5F5F50FF50FF5F50F0FF5F5F50FF5
310
0FF5F50FF50FF5F50F0FF50FF5F50FF50FF5F5F50F0FF5F5F5F5F5F5F5F5F5F5F5F5F5F5F5F5F5F5F5F5F5F5F5E2E2F5E2EFE2F5E2E2F5F5F5F5F5F5F5F5BEBEBEF5F5BEF5F5F5F5F5F5F5F5F5F50F0FF5F5F50F0FF5F50FF50FF5F50FF50FF5F50F0F0FF50FF5F50FF50FF5F5F5F5F5F5F5F5F5F5BEF5F5F5F5F5F5F5F5F5
310
F5F5F5F5F5F5F5F5F5F5F5F5F5F5F5F5F5F5F5F5F5F5F5F5F5BEBEBEF5F5BEF5F5F5F5F5F5F5F5F5F50F0FF50FF5F50FF5F50FF50FF5F50FF50FF5F50F0FF50FF50FF5F50FF50FF5F5F50FF5F5F5F5F5F5F5F5F5F5F5F5F5F5F5F5F5F5F5F5F5F5F5E2E2F5E2EFE2F5E2E2F5F5F5F5F5F5F5F5F5F5BEF5F5BEF5F5F5F5F5F5
310
F5F5F5F50F0F0FF5F5F50FF50FF50FF5F50FF50FF5F50FF50FF50FF50FF5F50F0FF5F5F5F5F5F5F5F5F5F5BEF5F5F5F5F5F5F5F5F5F5F5F5F5F5F5F5F5F5F5F5F5F5F5F5F5F5F5F5F5F5F5F5F5F5F5F5BEF5F5BEF5F5F5F5F5F5F5F5F5F50FF50FF50FF50FF50FF50FF5F50FF50FF5F50FF50FF5F50FF50FF5F50FF50FF5F5
310
0FF5F5F5F5F5F5F5F5F5F5F5F5F5F5F5F5F5F5F5F5F5F5F5E2E2F5E2EFE2F5E2E2F5F5F5F5F5F5F5F5F5F5BEF5F5BEF5F5F5F5F5F5F5F5F5F50FF50F0FF5F50F0F0F0FF5F5BEF50FF5F50FF50F0FF5F50F0FF5F5F50FF5F5F5F5F5F5F5F5F5F5BEF5F5F5F5F5F5F5F5F5F5F5F5F5F5F5F5F5F5F5F5F5F5F5F5F5F5F5F5F5F5
310
F5F5F5F5F5F5BEF5F5BEF5F5F5F5F5F5F5F5F5F50FF5F50FF50F0F0F0F0FF5F5BEF50FF5F50FF50F0F0FF5F50FF50FF5F50FF50FF50FF5F5F5F5F5F5F5F5F5F5F5F5F5F5F5F5F5F5F5F5F5F5F5E2E2F5E2EFE2F5E2E2F5F5F5F5F5F5F5F5F5F5BEF5F5BEF5F5F5F5F5F5F5F5F5F50FF5F50F0FF50F0FF5BEBEBEBEF5BEBEBE
310
F50FF50FF5F5F50F0FF5F50FF5F5F5F5F5F5F5F5F5F5BEF5F5F5F5F5F5F5F5F5F5F5F5F5F5F5F5F5F5F5F5F5F5F5F5F5F5F5F5F5F5F5F5F5F5F5F5BEF5F5BEF5F5F5F5F5F5F5F5F5F50F0FF5F50FF50F0FF5BEF5BEBEF5BEBEBEF50FF50FF50FF5F50FF50FF5F50FF50F0FF5F5F5F5F5F5F5F5F5F5F5F5F5F5F5F5F5F5F5F5
310
F5F5F5E2E2F5E2EFE2F5E2E2F5F5F5F5F5F5F5F5F5F5BEF5F5BEF5F5BEF5F5F5F5F5F5BE0FF5F50FF50F0F0FF5BEBEBEF5BEBEBEBE0FF5F50F0FF5F5F50F0FF5BEF5F5F5F5BEF5F5F5F5F5BEF5F5F5F5F5F5F5F5F5F5F5F5F5F5F5F5F5F5F5F5F5F5F5F5F5F5F5F5F5F5F5F5F5F5F5F5BEF5F5BEF5F5BEF5F5F5F5F5F5BE0F
310
F50FF5F50F0F0FF5BEBEBEF5BEBEBEBE0FF5F50F0FF50FF5F50FF50FF5F50FF50FF5F5F5F5F5F5F5F5F5F5F5F5F5F5F5F5F5F5F5F5F5F5F5E2E2F5E2EFE2F5E2E2F5F5F5F5F5F5F5F5F5F5BEF5F5BEF5F5BEBEBEBEBEBEBEBEBE0FF5F50FF50FF5F5F5BEBEF5BEBEBEBEF5F5F50FF50FF5F5F50F0FBEBEBEBEBEBEBEF5F5F5
310
F5BEF5F5F5F5F5F5F5F5F5F5F5F5F5F5F5F5F5F5F5F5F5F5F5F5F5F5F5F5F5F5F5F5F5F5F5F5BEF5F5BEF5F5F5BEBEBEBEBEBEBEBE0FF50FF5F50FF5F5F5BEBEF5BEBEBEBEF5F5F50FF50FF50FF5F50FF50FF5F50F0FF5F5F5F5F5F5F5F5F5F5F5F5F5F5F5F5F5F5F5F5F5F5F5E2E2F5E2EFE2F5E2E2F5F5F5F5F5F5F5F5F5
310
F5BEF5F5BEBEF5BEBEF5BEBEBEF5F5BEF50FF5F50F0FF50FBEBEBEF5BEBEBEBEF5F50F0F0FF50FF5F50FF5BEBEF5BEF5BEBEF5F5F5F5BEBEF5F5F5F5F5F5F5F5F5F5F5F5F5F5F5F5F5F5F5F5F5F5F5F5F5F5F5F5F5F5F5F5F5F5F5BEF5F5BEBEF5F5BEF5F5BEBEF5F5BEBE0FF50FF50FF50FBEBEBEF5BEBEBEBEF5F50F0FF5
310
F50FF50FF5F50FF50FF5F50FF5F5F5F5F5F5F5F5F5F5F5F5F5F5F5F5F5F5F5F5F5F5F5E2E2F5E2EFE2F5E2E2F5F5F5F5F5F5F5F5F5F5BEF5BEBEBEBEF50F0FBEBEBEF5F50F0FF50FF5F50F0FF50FF5F5F50FF50FF5F50FF50FF50FF50FF5F50F0F0F0FBE0FBEF5BEBEBEBEBEBEF5F5F5F5F5F5F5F5F5F5F5F5F5F5F5F5F5F5
310
F5F5F5F5F5F5F5F5F5F5F5F5F5F5F5F5F5BEF5BEBEBEBEF5F50FBEBEBEF5F50FF5F50FF50F0F0FF50FF5F5F50FF50FF5F50FF50FF5F5F50FF50FF5F50FF50FF50FF5F5F5F5F5F5F5F5F5F5F5F5F5F5F5F5F5F5F5F5F5F5F5E2E2F5E2EFE2F5E2E2F5F5F5F5F5F5F5F5F5F5BEF5BEF5F5F5F50FF5F50F0F0FF50FF50FF50FF5
310
0FF50FF5F5F50FF50FF5F50FF50F0FF5F50FF50FF5F50FF5F50FF5BEF5F5F5F5BEF5F5F5F5F5F5F5F5F5F5F5F5F5F5F5F5F5F5F5F5F5F5F5F5F5F5F5F5F5F5F5F5F5F5F5F5F5BEF5BEF5F5F5F50FF50FF50F0FF50FF5F5F50FF50FF50FF5F5F50FF50FF5F50FF50F0F0FF5F5F50FF50FF5F50FF50F0FF5F5F5F5F5F5F5F5F5
310
F5F5F5F5F5F5F5F5F5F5F5F5F5F5E2E2F5E2EFE2F5E2E2F5F5F5F5F5F5F5F5F5F5BEF5F5F5F5F50FF50FF5F50F0FF50FF5F50FF50F0F0FF5F5F50FF50FF5F50FF50FF50F0FF5F50FF50FF5F50FF5F50F0FF5F5F5F5F5F5F5F5F5F5F5F5F5F5F5F5F5F5F5F5F5F5F5F5F5F5F5F5F5F5F5F5F5F5F5F5F5F5F5F5F5F5BEBEF5F5
310
F5F5F50F0FF50FF50FF50F0FF5F5F50F0F0FF5F5F50FF50FF5F50FF50FF50FF50FF5F5F50FF50FF5F50FF50FF5F5F5F5F5F5F5F5F5F5F5F5F5F5F5F5F5F5F5F5F5F5F5E2E2F5E2EFE2F5E2E2F5F5F5F5F5F5F5F5F5BEBEBEBEBEBEBE0FF5F50FF5F50F0F0F0FF5F50FF50FF5F5F50FF50FF5F50FF50FF5F50FF50FF5F50FF5
310
0FF5F50FF50F0FF5F5F5F5F5F5F5F5F5F5F5F5F5F5F5F5F5F5F5F5F5F5F5F5F5F5F5F5F5F5F5F5F5F5F5F5F5F5F5F5F5BEBEBEBEBEBEBEF50FF50FF50F0F0F0FF50FF5F5F50FF5F5F50FF50FF5F50FF50FF5F50F0FF50FF5F5F50FF50FF5F50F0FF5F5F5F5F5F5F5F5F5F5F5F5F5F5F5F5F5F5F5F5F5F5F5E2E2F5E2EFE2F5
310
F5E2F5F5F5F5F5F5F5F5F5BEF5F5F5F5F5F50F0FF5F50FF5F50FF5F50FF5F50F0FF5F50FF50FF5F50FF50FF5F50F0F0FF50FF5F50FF50FF5F50FF50FF5F5F5F5F5F5F5F5F5F5F5F5F5F5F5F5F5F5F5F5F5F5F5F5F5F5F5F5F5F5F5F5F5F5F5F5F5F5F5F5F5BEF5F5F5F5F5F5F50FF5F50FF50FF5F50FF50FF5F50FF5F50FF5
310
0FF5F50FF50FF5F50F0FF50FF50FF5F5F50FF50FF5F50FF5F5F5F5F5F5F5F5F5F5F5F5F5F5F5F5F5F5F5F5F5F5F5E2F5F5E2EFE2F5F5E2F5F5F5F5F5F5F5F5F5F5F5F5F5F5F5F50FF50FF5F50FF5F50FF5F50FF5F50FF50FF50FF5F50FF50FF5F50FF50FF50FF50FF5F50FF50FF5F50F0FF5F5F5F5F5F5F5F5F5F5F5F5F5F5
310
F5F5F5F5F5F5F5F5F5F5F5F5F5F5F5F5F5F5F5F5F5F5F5F5F5F5F5F5F5F5F5F5F5F5F50F0FF5F50FF50FF5F50FF50FF50FF50FF50FF5F50FF50FF5F50FF50FF5F50FF50FF5F5F50FF50FF50FF5F5F5F5F5F5F5F5F5F5F5F5F5F5F5F5F5F5F5F5F5F5F5E2F5F5E2EFE2F5F5E2F5F5F5F5F5F5F5F5F5F5F5F5F5F5F5F50FF5F5
310
0FF5F50FF5F50FF5F50FF50F0FF50FF5F50FF50FF5F50FF50F0FF5F50FF50FF5F50FF50FF5F50FF5F5F5F5F5F5F5F5F5F5F5F5F5F5F5F5F5F5F5F5F5F5F5F5F5F5F5F5F5F5F5F5F5F5F5F5F5F5F5F5F5F5F5F5F5F5F5F5F50FF50FF5F50F0FF5F5F50FF50F0F0FF50FF5F50FF50FF5F50FF50F0F0FF5F50FF50FF5F5F50FF5
310
0F0FF5F5F5F5F5F5F5F5F5F5F5F5F5F5F5F5F5F5F5F5F5F5F5E2F5F5E2EFE2F5F5E2F5F5F5F5F5F5F5F5F5F5F5F5F5F5F5F50F0FF5F50F0FF50FF5F50F0FF50F0FF50FF5F50FF50FF5F50FF50FF50FF5F5F50FF50FF5F50FF50FF50FF5F5F5F5F5F5F5F5F5F5F5F5F5F5F5F5F5F5F5F5F5F5F5F5F5F5F5F5F5F5F5F5F5F5F5
310
F5F5F5F5F5F5F5F5F5F5F5F5F5F50F0FF50FF5F50F0FF5F5F50FF50FF50FF5F50FF50FF5F50FF50FF50FF50FF5F50F0F0FF5F5F50FF50FF5F5F5F5F5F5F5F5F5F5F5F5F5F5F5F5F5F5F5F5F5F5F5E2F5F5E2EFE2F5F5E2F5F5F5F5F5F5F5F5F5F5F5F5F5F5F5F50FF50FF5F5F50FF50FF5F5F50FF50F0FF5F50FF50FF5F50F
310
F50FF5F50F0FF5F5F50FF50FF5F50FF50F0FF5F5F5F5F5F5F5F5F5F5F5F5F5F5F5F5F5F5F5F5F5F5F5F5F5F5F5F5F5F5F5F5F5F5F5F5F5F5F5F5F5F5F5F5F5F5F5F5F50FF50F0FF5F5F50F0FF5F5F50F0F0FF5F50FF50FF5F50FF50FF5F50F0FF50FF5F5F50F0FF5F5F50F0FF5F5F5F5F5F5F5F5F5F5F5F5F5F5F5F5F5F5F5
310
F5F5F5F5E2F5F5E2EFE2F5F5E2F5F5F5F5F5F5F5F5F5F5F5F5F5F5F5F50F0FF50FF5F5F50FF50FF5F5F50F0FF5F50FF50FF5F50FF50FF5F5F50FF50FF5F5F50FF50FF5F50FF50FF5F5F5F5F5F5F5F5F5F5F5F5F5F5F5F5F5F5F5F5F5F5F5F5F5F5F5F5F5F5F5F5F5F5F5F5F5F5F5F5F5F5F5F5F5F5F5F5F50FF50FF50FF5F5
310
F50F0FF5F5F50FF5F50FF50FF5F50FF50FF5F5F50FF50FF50FF5F5F50F0FF5F5F50FF5F5F5F5F5F5F5F5F5F5F5F5F5F5F5F5F5F5F5F5F5F5F5E2F5F5E2EFE2F5F5E2F5F5F5F5F5F5F5F5F5F5F5F5F5F5F5F50FF50FF50FF5F5F50FF50FF5F5F50FF50FF50FF5F50FF50FF5F5F50F0F0FF50FF5F5F50FF50FF5F50F0FF5F5F5
310
F5F5F5F5F5F5F5F5F5F5F5F5F5F5F5F5F5F5F5F5F5F5F5F5F5F5F5F5F5F5F5F5F5F5F5F5F5F5F5F5F5F5F5F5F5F50FF5F50FF50FF5F5F50F0FF5F50FF50FF50FF5F50FF50FF5F5F50F0FF5F50FF50FF5F5F50F0FF5F50FF5F5F5F5F5F5F5F5F5F5F5F5F5F5F5F5F5F5F5F5F5F5F5E2F5F5E2EFE2F5F5E2F5F5F5F5F5F5F5F5
310
F5F5F5F5F5F5F5F50FF5F50FF50FF5F5F50FF50FF5F50F0FF50FF5F50FF50FF5F5F50FF50FF50FF50FF5F5F50FF50FF5F50FF5F5F5F5F5F5F5F5F5F5F5F5F5F5F5F5F5F5F5F5F5F5F5F5F5F5F5F5F5F5F5F5F5F5F5F5F5F5F5F5F5F5F5F5F5F5F5F5F50F0FF5F50FF50FF5F5F50F0FF50F0FF50FF5F50FF50FF5F5F50FF50F
310
0FF5F50FF50FF5F5F50F0FF50FF5F5F5F5F5F5F5F5F5F5F5F5F5F5F5F5F5F5F5F5F5F5F5E2F5F5E2EFE2F5E2E2F5F5F5F5F5F5F5F5F5F5F5F5F5F5F5F5F5F5F5F5F5F5F5F5F5F5F5F5F5F5F5F5F5F5F5F5F5F5F5F5F5F5F5F5F5F5F5F5F5F5F5F5F5F5F5F5F5F5F5F5F5F5F5F5F5F5F5F5F5F5F5F5F5F5F5F5F5F5F5F5F5F5
310
F5F5F5F5F5F5F5F5F5F5F5F5F5F5F5F5F5F5F5F5F5F5F5F5F5F5F5F5F5F5F5F5F5F5F5F5F5F5F5F5F5F5F5F5F5F5F5F5F5F5F5F5F5F5F5F5F5F5F5F5F5F5F5F5F5F5F5F5F5F5F5F5F5F5F5F5F5F5F5F5F5F5F5F5F5F5F5F5F5E2E2F5E2EFE2F5E2E2F5F5F5F5F5F5F5F5F5F5F5F5F5F5F5F5F5F5F5F5F5F5F5F5F5F5F5F5F5
310
F5F5F5F5F5F5F5F5F5F5F5F5F5F5F5F5F5F5F5F5F5F5F5F5F5F5F5F5F5F5F5F5F5F5F5F5F5F5F5F5F5F5F5F5F5F5F5F5F5F5F5F5F5F5F5F5F5F5F5F5F5F5F5F5F5F5F5F5F5F5F5F5F5F5F5F5F5F5F5F5F5F5F5F5F5F5F5F5F5F5F5F5F5F5F5F5F5F5F5F5F5F5F5F5F5F5F5F5F5F5F5F5F5F5F5F5F5F5F5F5F5F5F5F5F5F5F5
310
F5F5F5F5F5F5F5F5F5F5F5F5F5F5F5E2E2F5E2EFE2F5E2E2F5F5F5F5F5F5F5F5F5F5F5F5F5F5F5F5F5F5F5F5F5F5F5F5F5F5F5F5F5F5F5F5F5F5F5E2E2F5F5F5F5F5F5F5F5F5F5F5F5F5F5F5F5F5F5F5F5F5F5F5F5F5F5F5F5F5F5F5F5F5F5F5F5F5F5F5F5F5F5F5F5F5F5F5F5F5F5F5F5F5F5F5F5F5F5F5F5F5F5F5F5F5F5
310
F5F5F5F5F5F5F5F5F5F5F5F5F5F5F5F5F5F5F5F5F5F5F5F5F5F5F5F5F5F5F5F5F5F5F5F5E2E2F5F5F5F5F5F5F5F5F5F5F5F5F5F5F5F5F5F5F5F5F5F5F5F5F5F5F5F5F5F5E2E2F5E2EFE2F5E2E2F5F5F5F5F5F5F5F5F5E2E2E2E2F5F5E2E2E2F5F5F5F5F5F5E2F5E2E2E2E2E2E2E2E2E2E2E2F5F5E2E2E2E2E2E2E2E2F5F5E2
310
E2E2E2E2E2F5F5E2E2E2E2E2E2E2E2E2F5F5F5F5F5F5F5F5F5F5F5F5F5F5F5F5F5F5F5F5F5F5F5F5F5F5F5F5F5F5F5F5F5F5F5F5E2E2E2E2E2F5E2E2E2F5F5F5F5F5F5E2F5E2E2E2E2E2E2E2E2E2F5E2E2F5E2E2E2E2E2E2E2E2E2F5F5E2E2E2E2E2E2E2E2E2E2F5F5F5F5F5F5F5F5F5F5F5F5F5F5F5F5F5F5E2E2F5E2EFE2
310
F5E2E2F5F5F5F5F5F5F5F5F5E2E2E2E2F5F5F5E2F5F5E2E2E2F5F5E2E2E2E2E2E2E2E2E2E2E2E2E2F5F5E2E2E2E2E2E2E2E2F5F5E2E2E2E2E2E2F5F5E2E2E2E2E2E2E2E2E2F5F5F5F5F5F5F5F5F5F5F5F5F5F5F5F5F5F5F5F5F5F5F5F5F5F5F5F5F5F5F5F5F5F5F5F5F5E2E2E2E2F5E2F5E2F5F5E2E2F5F5E2E2E2E2E2E2E2
310
E2E2E2E2E2E2E2F5E2E2E2E2E2E2E2E2E2F5F5E2E2E2E2E2E2E2E2E2E2F5F5F5F5F5F5F5F5F5F5F5F5F5F5F5F5F5F5E2E2F5E2EFE2F5E2E2F5F5F5F5F5F5F5F5F5E2E2E2E2F5F5E2E2F5F5F5F5F5F5F5E2F5E2E2E2E2E2E2E2E2F5E2E2F5E2E2E2E2E2F5E2E2E2F5F5E2E2E2E2E2E2F5F5E2E2E2E2E2E2E2E2E2F5F5F5F5F5
310
F5F5F5F5F5F5F5F5F5F5F5F5F5F5F5F5F5F5F5F5F5F5F5F5F5F5F5F5F5F5F5E2E2E2E2E2F5F5E2E2F5F5F5F5F5F5F5E2E2E2E2E2E2E2E2E2E2E2E2E2E2E2E2E2E2E2E2E2E2E2F5F5E2E2E2E2E2E2E2E2E2E2F5F5F5F5F5F5F5F5F5F5F5F5F5F5F5F5F5F5E2E2F5E2EFE2F5E2E2F5F5F5F5F5F5F5F5F5E2E2E2E2F5F5F5E2F5
310
F5F5F5F5F5F5E2E2F5E2E2F5F5F5F5F5F5F5F5F5F5E2F5F5F5F5F5F5F5F5F5F5F5F5F5F5E2F5F5F5F5F5F5E2F5F5F5F5F5F5F5F5F5F5F5F5F5F5F5F5F5F5F5F5F5F5F5F5F5F5F5F5F5F5F5F5F5F5F5F5F5F5F5F5E2E2E2E2E2F5F5E2E2F5F5F5F5F5F5F5E2E2F5F5E2F5F5F5F5E2F5E2E2F5E2E2F5F5F5F5F5F5F5F5F5F5F5
310
F5F5E2E2F5F5F5F5F5F5F5F5F5F5F5F5F5F5F5F5F5F5F5F5F5F5E2E2F5E2EFE2F5E2E2F5F5F5F5F5F5F5F5F5F5F5F5F5F5F5F5F5F5F5F5F5F5F5F5F5F5F5F5F5F5F5F5F5F5F5F5F5F5F5F5F5F5F5F5F5F5F5F5F5F5F5F5F5F5F5F5F5F5F5F5F5F5F5F5F5F5F5F5F5F5F5F5F5F5F5F5F5F5F5F5F5F5F5F5F5F5F5F5F5F5F5F5
310
F5F5F5F5F5F5F5F5F5F5F5F5F5F5F5F5F5F5F5F5F5F5F5F5F5F5F5F5F5F5F5F5F5F5F5F5F5F5F5F5F5F5F5F5F5F5F5F5F5F5F5F5F5F5F5F5F5F5F5F5F5F5F5F5F5F5F5F5F5F5F5F5F5F5F5F5F5F5F5E2E2F5E2EFE2F5E2E2F5F5F5F5F5F5F5F5F5F5F5F5F5F5F5F5F5F5F5F5F5F5F5F5F5F5F5F5F5F5F5F5F5F5F5F5F5F5F5
310
F5F5F5F5F5F5F5F5F5F5F5F5F5F5F5F5F5F5F5F5F5F5F5F5F5F5F5F5F5F5F5F5F5F5F5F5F5F5F5F5F5F5F5F5F5F5F5F5F5F5F5F5F5F5F5F5F5F5F5F5F5F5F5F5F5F5F5F5F5F5F5F5F5F5F5F5F5F5F5F5F5F5F5F5F5F5F5F5F5F5F5F5F5F5F5F5F5F5F5F5F5F5F5F5F5F5F5F5F5F5F5F5F5F5F5F5F5F5F5F5F5F5F5F5F5F5F5
310
F5F5F5F5F5E2E2F5E2EFE2F5E2E2F5F5F5F5F5F5F5F5F5F5F5F5F5F5F5F5F5F5F5F5F5F5F5F5F5F5F5F5F5F5F5F5F5F5F5F5F5F5F5F5F5F5F5F5F5F5F5F5F5F5F5F5F5F5F5F5F5F5F5F5F5F5F5F5F5F5F5F5F5F5F5F5F5F5F5F5F5F5F5F5F5F5F5F5F5F5F5F5F5F5F5F5F5F5F5F5F5F5F5F5F5F5F5F5F5F5F5F5F5F5F5F5F5
310
F5F5F5F5F5F5F5F5F5F5F5F5F5F5F5F5F5F5F5F5F5F5F5F5F5F5F5F5F5F5F5F5F5F5F5F5F5F5F5F5F5F5F5F5F5F5F5F5F5F5F5F5F5F5F5F5F5F5E2E2F5E2EFE2F5E2E2F5F5F5F5F5F5F5F5F5F5F5F5F5F5F5F5F5F5F5F5F5F5F5F5F5F5F5F5F5F5F5F5F5F5F5F5F5F5F5F5F5F5F5F5F5F5F5F5F5F5F5F5F5F5F5F5F5F5F5F5
310
F5F5F5F5F5F5F5F5F5F5F5F5F5F5F5F5F5F5F5F5F5F5F5F5F5F5F5F5F5F5F5F5F5F5F5F5F5F5F5F5F5F5F5F5F5F5F5F5F5F5F5F5F5F5F5F5F5F5F5F5F5F5F5F5F5F5F5F5F5F5F5F5F5F5F5F5F5F5F5F5F5F5F5F5F5F5F5F5F5F5F5F5F5F5F5F5F5F5F5F5F5F5F5F5F5F5F5F5F5F5F5E2E2F5E2EFE2F5E2E2F5F5F5F5F5F5F5
310
F5F5F5F5F5F5F5F5F5F5F5F5F5F5F5F5F5F5F5F5F5F5F5F5F5F5F5F5F5F5F5F5F5F5F5F5F5F5F5F5F5F5F5F5F5F5F5F5F5F5F5F5F5F5F5F5F5F5F5F5F5F5F5F5F5F5F5F5F5F5F5F5F5F5F5F5F5F5F5F5F5F5F5F5F5F5F5F5F5F5F5F5F5F5F5F5F5F5F5F5F5F5F5F5F5F5F5F5F5F5F5F5F5F5F5F5F5F5F5F5F5F5F5F5F5F5F5
310
F5F5F5F5F5F5F5F5F5F5F5F5F5F5F5F5F5F5F5F5F5F5F5F5F5F5F5F5F5F5F5F5F5F5F5F5F5E2E2F5E2EFE2F5E2E2F5F5F5F5F5F5F5F5F5F5F5F5F5F5F5F5F5F5F5F5F5F5F5F5F5F5F5F5F5F5F5F5F5F5F5F5F5F5F5F5F5F5F5F5F5F5F5F5F5F5F5F5F5F5F5F5F5F5F5F5F5F5F5F5F5F5F5F5F5F5F5F5F5F5F5F5F5F5F5F5F5
310
F5F5F5F5F5F5F5F5F5F5F5F5F5F5F5F5F5F5F5F5F5F5F5F5F5F5F5F5F5F5F5F5F5F5F5F5F5F5F5F5F5F5F5F5F5F5F5F5F5F5F5F5F5F5F5F5F5F5F5F5F5F5F5F5F5F5F5F5F5F5F5F5F5F5F5F5F5F5F5F5F5F5F5F5F5F5F5F5F5F5E2E2F5E2EFE2F5E2E2F5F5F5F5F5F5F5F5F5F5F5F5F5F5F5F5F5F5F5F5F5F5F5F5F5F5F5F5
310
F5F5F5F5F5F5F5F5F5F5F5F5F5F5F5F5F5F5F5F5F5F5F5F5F5F5F5F5F5F5F5F5F5F5F5F5F5F5F5F5F5F5F5F5F5F5F5F5F5F5F5F5F5F5F5F5F5F5F5F5F5F5F5F5F5F5F5F5F5F5F5F5F5F5F5F5F5F5F5F5F5F5F5F5F5F5F5F5F5F5F5F5F5F5F5F5F5F5F5F5F5F5F5F5F5F5F5F5F5F5F5F5F5F5F5F5F5F5F5F5F5F5F5F5F5F5F5
310
F5F5F5F5F5F5F5F5F5F5F5F5F5F5F5F5E2E2F5E2EFE2F5E2E2F5F5F5F5F5F5F5F5F5F5F5F5F5F5F5F5F5F5F5F5F5F5F5F5F5F5F5F5F5F5F5F5F5F5F5F5F5F5F5F5F5F5F5F5F5F5F5F5F5F5F5F5F5F5F5F5F5F5F5F5F5F5F5F5F5F5F5F5F5F5F5F5F5F5F5F5F5F5F5F5F5F5F5F5F5F5F5F5F5F5F5F5F5F5F5F5F5F5F5F5F5F5
310
F5F5F5F5F5F5F5F5F5F5F5F5F5F5F5F5F5F5F5F5F5F5F5F5F5F5F5F5F5F5F5F5F5F5F5F5F5F5F5F5F5F5F5F5F5F5F5F5F5F5F5F5F5F5F5F5F5F5F5F5F5F5F5F5F5F5F5F5F5E2E2F5E2EFE2F5E2E2F5F5F5F5F5F5F5F5F5F5F5F5F5F5F5F5F5F5F5F5F5F5F5F5F5F5F5F5F5F5F5F5F5F5F5F5F5F5F5F5F5F5F5F5F5F5F5F5F5
310
F5F5F5F5F5F5F5F5F5F5F5F5F5F5F5F5F5F5F5F5F5F5F5F5F5F5F5F5F5F5F5F5F5F5F5F5F5F5F5F5F5F5F5F5F5F5F5F5F5F5F5F5F5F5F5F5F5F5F5F5F5F5F5F5F5F5F5F5F5F5F5F5F5F5F5F5F5F5F5F5F5F5F5F5F5F5F5F5F5F5F5F5F5F5F5F5F5F5F5F5F5F5F5F5F5F5F5F5F5F5F5F5F5F5F5F5F5F5F5F5F5F5E2E2F5E2EF
310
E2F5F5E2F5F5F5F5F5F5F5F5F5F5F5F5F5F5F5F5F5F5F5F5F5F5F5F5F5F5F5F5F5F5F5F5F5F5F5F5F5F5F5F5F5F5F5F5F5F5F5F5F5F5F5F5F5F5F5F5F5F5F5F5F5F5F5F5F5F5F5F5F5F5F5F5F5F5F5F5F5F5F5F5F5F5F5F5F5F5F5F5F5F5F5F5F5F5F5F5F5F5F5F5F5F5F5F5F5F5F5F5F5F5F5F5F5F5F5F5F5F5F5F5F5F5F5
310
F5F5F5F5F5F5F5F5F5F5F5F5F5F5F5F5F5F5F5F5F5F5F5F5F5F5F5F5F5F5F5F5F5F5F5F5F5F5F5F5F5F5F5F5F5F5F5F5E2F5F5E2EFE2F5F5E2F5F5F5F5F5F5F5F5F5F5F5F5F5F5F5F5F5F5F5F5F5F5F5F5F5F5F5F5F5F5F5F5F5F5F5F5F5F5F5F5F5F5F5F5F5F5F5F5F5F5F5F5F5F5F5F5F5F5F5F5F5F5F5F5F5F5F5F5F5F5
310
F5F5F5F5F5F5F5F5F5F5F5F5F5F5F5F5F5F5F5F5F5F5F5F5F5F5F5F5F5F5F5F5F5F5F5F5F5F5F5F5F5F5F5F5F5F5F5F5F5F5F5F5F5F5F5F5F5F5F5F5F5F5F5F5F5F5F5F5F5F5F5F5F5F5F5F5F5F5F5F5F5F5F5F5F5F5F5F5F5F5F5F5F5F5F5F5F5F5F5F5F5E2F5F5E2EFE2F5F5E2F5F5F5F5F5F5F5F5F5F5F5F5F5F5F5F5F5
310
F5F5F5F5F5F5F5F5F5F5F5F5F5F5F5F5F5F5F5F5F5F5F5F5F5F5F5F5F5F5F5F5F5F5F5F5F5F5F5F5F5F5F5F5F5F5F5F5F5F5F5F5F5F5F5F5F5F5F5F5F5F5F5F5F5F5F5F5F5F5F5F5F5F5F5F5F5F5F5F5F5F5F5F5F5F5F5F5F5F5F5F5F5F5F5F5F5F5F5F5F5F5F5F5F5F5F5F5F5F5F5F5F5F5F5F5F5F5F5F5F5F5F5F5F5F5F5
310
F5F5F5F5F5F5F5F5F5F5F5F5F5F5F5F5F5F5F5F5F5F5F5F5F5F5F5E2F5F5E2EFE2F5F5E2F5F5F5F5F5F5F5F5F5F5F5F5F5F5F5F5F5F5F5F5F5F5F5F5F5F5F5F5F5F5F5F5F5F5F5F5F5F5F5F5F5F5F5F5F5F5F5F5F5F5F5F5F5F5F5F5F5F5F5F5F5F5F5F5F5F5F5F5F5F5F5F5F5F5F5F5F5F5F5F5F5F5F5F5F5F5F5F5F5F5F5
310
F5F5F5F5F5F5F5F5F5F5F5F5F5F5F5F5F5F5F5F5F5F5F5F5F5F5F5F5F5F5F5F5F5F5F5F5F5F5F5F5F5F5F5F5F5F5F5F5F5F5F5F5F5F5F5F5F5F5F5F5F5F5F5BEF5F5F5F5F5F5F5F5F5F5F5F5F5F5F5F5E2F5F5E2EFE2F5F5E2F5F5F5F5F5F5F5F5F5F5F5F5F5F5F5F5F50F0F0F0F0F0F0F0F0F0F0F0F0F0F0F0F0F0F0F0F0F
310
0F0F0F0F0F0F0F0F0F0F0F0F0F0F0F0F0F0F0F0FF5F5F5F5F5F5F5F5F5F5F5F5F5F5F5F5F5F5F5F5F5F5F5F5F5F5F5F5F5F5F5F5F5F5F5F5F5F5F5F5F5F5F5F5F5F5F5F5F50F0F0F0F0F0F0F0F0F0F0F0F0F0F0F0F0F0F0F0F0F0F0F0F0F0F0F0F0F0F0F0F0F0F0F0FF5F5F5F5F5F5BEBEBEBEBEBEF5F5F5F5F5F5F5F5F5F5
310
F5F5F5F5F5F5E2F5F5E2EFE2F5F5E2F5F5F5F5F5F5F5F5F5F5F5F5F5F5F5F50F0FF5F50FF50FF5F5F50FF50FF50FF50FF50FF5F50FF50FF5F5F50F0FF5F50FF50FF5F5F50FF50FF50FF5F5F5F5F5F5F5F5F5F5F5F5F5F5F5F5F5F5F5F5F5F5F5F5F5F5F5F5F5F5F5F5F5F5F5F5F5F5F5F5F5F5F5F5F5F5F5F5F50FF50FF5F5
310
0FF50FF5F50FF50F0FF50FF50FF5F50FF50FF5F5F50F0FF50FF5F50FF50F0F0FF5F5F5F5F5F5F5F5BEBEF5F5F5F5F5F5F5F5F5F5F5F5F5F5F5F5F5E2F5F5E2EFE2F5F5E2F5F5F5F5F5F5F5F5F5F5F5F5F5F5F5F50FF50FF5F50F0F0FF5F5F50F0FF50F0FF50FF5F50FF50FF5F5F50F0F0F0FF5F50FF50FF5F5F50FF50F0FF5
310
F5F5F5F5F5F5F5F5F5F5F5F5F5F5F5F5F5F5F5F5F5F5F5F5F5F5F5F5F5F5F5F5F5F5F5F5F5F5F5F5F5F5F5F5F5F5F5F50F0FF50FF5F50FF50FF5F50F0F0F0FF50FF5F50FF50FF5F5F50F0F0FF5F50FF5F50FF50F0FF5F5F5F5F5F5F5F5F5BEF5F5F5F5F5F5F5F5F5F5F5F5F5F5F5F5F5E2F5F5E2EFE2F5F5E2F5F5F5F5F5F5
310
F5F5F5F5F5F5F5F5F5F50FF5F50FF5F5F50F0FF5F50FF50F0FF50FF5F50FF50FF5F5F50F0FF50FF50FF5F50FF50FF5F50FF50F0FF5F5F5F5F5F5F5F5F5F5F5F5F5F5F5F5F5F5F5F5F5F5F5F5F5F5F5F5F5F5F5F5F5F5F5F5F5F5F5F5F5F5F5F5F5F5F5F5F50FF50FF50FF5F50FF50FF5F5F50FF50FF5F50FF50FF5F5F50F0F
310
F50F0FF5F50FF5F50FF50FF5F5F5F5F5F5F5F5F5BEF5F5F5F5F5F5F5F5F5F5F5F5F5F5F5F5F5E2F5F5E2EFE2F5F5E2F5F5F5F5F5F5F5F5F5F5F5F5F5F5F5F50F0FF5F50FF5F5F50F0FF5F50FF50F0FF5F50FF50FF5F5F50F0FF5F50F0FF50FF5F50FF50FF5F50FF50FF5F5F5F5F5F5F5F5F5F5F5F5F5F5F5F5F5F5F5F5F5F5
310
F5F5F5F5F5F5F5F5F5F5F5F5F5F5F5F5F5F5F5F5F5F5F5F5F5F5F50FF5F50FF50FF5F50FF50FF5F50F0FF5F50FF50FF5F5F50F0FF5F50FF50FF5F50FF5F50F0FF5F5F5F5F5F5F5F5F5BEF5F5F5F5F5F5F5F5F5F5F5F5F5F5F5F5F5E2F5F5E2EFE2F5E2E2F5F5F5F5F5F5F5F5F5F5F5F5F5F5F5F50FF50FF5F50FF5F5F50F0F
310
F5F50F0FF5F5F50F0FF5F5F50F0FF5F5F50FF50FF50FF5F50FF50FF5F50F0FF5F5F5F5F5F5F5F5F5F5F5F5F5F5F5F5F5F5F5F5F5F5F5F5F5F5F5F5F5F5F5F5F5F5F5F5F5F5F5F5F5F5F5F5F5F5F5F5F50FF5F5F50FF50FF5F50FF50FF50FF5F5F50F0FF5F5F50F0FF5F5F50FF5F50FF5F50FF5F50FF5F5F5F5F5F5F5F5F5BE
310
F5F5F5F5F5F5F5F5F5F5F5F5F5F5F5F5F5E2E2F5E2EFE2F5E2E2F5F5F5F5F5F5F5F5F5F5F5F5F5F5F5F50FF5F50FF5F50FF5F5F50F0FF5F50FF5F50FF50FF5F50F0FF5F5F50F0FF5F50FF50FF5F50FF50FF5F50FF5F5F5F5F5F5F5F5F5F5F5F5F5F5F5F5F5F5F5F5F5F5F5F5F5F5F5F5F5F5F5F5F5F5F5F5F5F5F5F5F5F5F5
310
F5F5F5F5F5F50F0FF5F5F50FF50FF5F50FF50F0FF5F50FF50FF5F50F0FF5F5F50F0F0FF5F50F0FF50FF50FF5F5F5F5F5F5F5F5F5BEF5F5F5F5F5F5F5F5F5F5F5F5F5F5F5F5F5E2E2F5E2EFE2F5E2E2F5F5F5F5F5F5F5F5F5F5F5F5F5F5F5F50F0FF5F50F0FF50FF5F50FF50FF50FF50FF50FF5F50FF50FF5F50FF50FF5F5F5
310
0FF50FF5F50FF50FF50FF5F5F5F5F5F5F5F5F5F5F5F5F5F5F5F5F5F5F5F5F5F5F5F5F5F5F5F5F5F5F5F5F5F5F5F5F5F5F5F5F5F5F5F5F5F5F5F5F50F0F0FF5F5F50FF50FF5F50FF50FF50FF50FF5F50FF50FF5F50FF50FF50FF5F5F50FF50F0FF5F5F5F5F5F5F5F5F5BEF5F5F5F5F5F5F5F5F5F5F5F5F5F5F5F5F5E2E2F5E2
310
EFE2F5E2E2F5F5F5F5F5F5F5F5F5F5F5F5F5F5F5F50FF50FF5F5F50FF50FF5F50FF50F0F0FF50FF5F50FF50FF5F50FF50F0F0FF5F5F50F0FF5F5F50FF50F0FF5F5F5F5F5F5F5F5F5F5F5F5F5F5F5F5F5F5F5F5F5F5F5F5F5F5F5F5F5F5F5F5F5F5F5F5F5F5F5F5F5F5F5F5F5F5F5F5F50FF50F0FF5F5F50FF50FF5F50F0F0F
310
F50FF5F50FF50FF5F50FF50F0F0FF50FF5F5F50FF50FF5F5F5F5F5F5F5BEF5BEF5F5F5F5F5F5F5F5F5F5F5F5F5F5F5F5F5E2E2F5E2EFE2F5E2E2F5F5F5F5F5F5F5F5F5F5F5F5F5F5F5F50F0FF50FF5F5F50FF50FF5F50FF50FF50FF5F50FF50FF5F50FF50FF50FF50FF5F5F50F0FF5F5F50FF50FF5F5F5F5F5F5F5F5F5F5F5
310
F5F5F5F5F5F5F5F5F5F5F5F5F5F5F5F5F5F5F5F5F5F5F5F5F5F5F5F5F5F5F5F5F5F5F5F5F5F50FF5F50F0FF5F5F50FF50FF5F50FF50FF5F50FF50FF5F50FF50FF50FF50FF50FF5F5F50F0FF5F5F5F5F5F5F5BEBEBEF5F5F5F5F5F5F5F5F5F5F5F5F5F5F5F5F5E2E2F5E2EFE2F5E2E2F5F5F5F5F5F5F5F5F5F5F5F5F5F5F5F5
310
0FF50FF50F0FF5F50FF50FF5F50F0F0FF5F50FF50FF5F50FF50FF5F50F0FF50FF5F50FF50FF5F5F50F0FF5F5F5F5F5F5F5F5F5F5F5F5F5F5F5F5F5F5F5F5F5F5F5F5F5F5F5F5F5F5F5F5F5F5F5F5F5F5F5F5F5F5F5F5F5F5F5F5F50FF5F5F50F0FF5F5F50FF50FF50F0FF5F50FF50FF5F50FF50FF5F50FF5F50FF50FF5F5F5
310
0FF5F5F5F5F5F5F5BEBEBEF5F5F5F5F5F5F5F5F5F5F5F5F5F5F5F5F5E2E2F5E2EFE2F5E2E2F5F5F5F5F5F5F5F5F5F5F5F5F5F5F5F50FF5F50FF5F50FF5F50F0FF5F5F50FF5F50FF50FF5F50FF50FF5F50F0FF50FF50FF5F50FF50FF5F5F50FF5F5F5F5F5F5F5F5F5F5F5F5F5F5F5F5F5F5F5F5F5F5F5F5F5F5F5F5F5F5F5F5
310
F5F5F5F5F5F5F5F5F5F5F5F5F5F5F5F5F50F0FF5F5F50F0FF5F5F50FF50F0FF5F50FF50FF5F50FF50FF5F50F0FF5F5F50FF50FF5F50FF5F5F5F5F5F5F5F5F5BEF5F5F5F5F5F5F5F5F5F5F5F5F5F5F5F5F5E2E2F5E2EFE2F5E2E2F5F5F5F5F5F5F5F5F5F5F5F5F5F5F5F50FF5F5F50F0FF50FF5F50F0FF5F50FF50FF50FF5F5
310
0FF50FF5F5F50F0FF5F50FF50FF5F50FF50FF5F50FF5F5F5F5F5F5F5F5F5F5F5F5F5F5F5F5F5F5F5F5F5F5F5F5F5F5F5F5F5F5F5F5F5F5F5F5F5F5F5F5F5F5F5F5F5F5F5F5F50FF50FF5F5F50F0FF5F5F50FF50FF50FF50FF5F50FF50FF5F5F50F0F0FF5F5F50FF50FF50FF5F5F5F5F5F5F5F5F5BEF5F5F5F5F5F5F5F5F5F5
310
F5F5F5F5F5F5F5E2E2F5E2EFE2F5E2E2F5F5F5F5F5F5F5F5F5F5F5F5F5F5F5F50F0FF5F5F5F50FF50FF50FF50FF50F0FF50FF5F50FF50FF5F5F50F0F0F0FF5F50FF50FF5F50FF50FF50FF5F5F5F5F5F5F5F5F5F5F5F5F5F5F5F5F5F5F5F5F5F5F5F5F5F5F5F5F5F5F5F5F5F5F5F5F5F5F5F5F5F5F5F5F5F5F5F5F50F0FF50F
310
F5F50FF50FF5F5F50F0F0FF50FF5F50FF50FF5F5F50F0F0FF50FF5F5F50FF50F0FF5F5F5F5F5F5F5F5F5BEF5F5F5F5F5F5F5F5F5F5F5F5F5F5F5F5F5E2E2F5E2EFE2F5E2E2F5F5F5F5F5F5F5F5F5F5F5F5F5F5F5F50F0F0FF5F5F5F50FF50FF50FF50F0FF50FBEBEBEBEF5BEBEBE0F0FF50FF50FF5F50FF50FF5F50FF50F0F
310
F5F5F5F5F5F5F5F5F5F5F5F5F5F5F5F5F5F5F5F5F5F5F5F5F5F5F5F5F5F5F5F5F5F5F5F5F5F5F5F5F5F5F5F5F5F5F5F5F50FF50FF50FF5F50FF50FF5F5F50FF50FBEF5BEBEF5BEBEBE0F0FF50F0FF50FF5F5F50FF50FF5F5F5F5F5F5F5F5F5BEF5F5F5F5F5F5F5F5F5F5F5F5F5F5F5F5F5E2E2F5E2EFE2F5E2E2F5F5F5F5F5
310
F5F5F5F5F5F5F5F5F5F5F50FF50F0FF5F5F5F50FF50FF50FF50F0FF5BEBEBEBEF5BEBEBE0FF5F50F0FF50FF5F50FF50FF5F50FF50FF5F5F5F5F5F5F5F5F5F5F5F5F5F5F5F5F5F5F5F5F5F5F5F5F5F5F5F5F5F5F5F5F5F5F5F5F5F5F5F5F5F5F5F5F5F5F5F5F50FF5F50FF50FF5F50FF50FF5F50F0FF5BEBEBEBEF5BEBEBE0F
310
F5F50FF50FF50FF5F5F5BEBEF5F5F5BEF5F5F5F5F5BEF5F5F5F5F5F5F5F5F5F5F5F5F5F5F5F5F5E2E2F5E2EFE2F5E2E2F5F5F5F5F5F5F5F5F5F5F5F5F5F5F5F50FF5F50F0F0FF5F5F50F0FF5F50F0FF5F5F5BEBEF5BEBEBEBEF5F5F50FF50FF50FF5F50FF50FF5F50F0FF5F5F5F5F5F5F5F5F5F5F5F5F5F5F5F5F5F5F5F5F5
310
F5F5F5F5F5F5F5F5F5F5F5F5F5F5F5F5F5F5F5F5F5F5F5F5F5F5F5F50F0FF5F50FF50FF5F50FF50FF50FF5F5F5BEBEF5BEBEBEBEF5F5F50FF5F50FF50FF5F5F5BEBEBEBEBEBEF5F5F5F5BEF5F5F5F5F5F5F5F5F5F5F5F5F5F5F5F5F5E2E2F5E2EFE2F5E2E2F5F5F5F5F5F5F5F5F5F5F5F5F5F5F5F50FF5F5F50FF50FF5F5F5
310
0F0FF5F50FF50FBEBEBEF5BEBEBEBEF5F50F0FF5F50FF50FF5F50FF50FF5F50FF5F5F5F5F5F5F5F5F5F5F5F5F5F5F5F5F5F5F5F5F5F5F5F5F5F5F5F5F5F5F5F5F5F5F5F5F5F5F5F5F5F5F5F5F5F5F5F5F50FF50FF5F50FF50FF5F50FF50F0FF50FBEBEBEF5BEBEBEBEF5F50F0F0FF5F50FF50FF5F5BEF5BEF5BEBEF5F5F5F5
310
BEBEF5F5F5F5F5F5F5F5F5F5F5F5F5F5F5F5E2E2F5E2EFE2F5E2E2F5F5F5F5F5F5F5F5F5F5F5F5F5F5F5F50F0FF5F5F50FF50FF5F50FF50FF50F0FF50FF5F5F50FF50FF5F50FF50FF5F5F50FF50FF5F50FF50FF50FF5F5F5F5F5F5F5F5F5F5F5F5F5F5F5F5F5F5F5F5F5F5F5F5F5F5F5F5F5F5F5F5F5F5F5F5F5F5F5F5F5F5
310
F5F5F5F5F5F5F50F0FF50FF5F50FF50FF5F50FF50F0FF50FF5F5F50FF50FF5F50FF50FF50FF5F50FF50FF50F0FBE0FBEF5F5BEBEBEBEBEF5F5F5F5F5F5F5F5F5F5F5F5F5F5F5F5E2E2F5E2EFE2F5E2E2F5F5F5F5F5F5F5F5F5F5F5F5F5F5F5F50FF50FF5F5F50FF50FF5F50FF50F0FF50FF5F5F50FF50FF5F50FF50F0F0FF5
310
F5F50FF50FF5F50FF50F0FF5F5F5F5F5F5F5F5F5F5F5F5F5F5F5F5F5F5F5F5F5F5F5F5F5F5F5F5F5F5F5F5F5F5F5F5F5F5F5F5F5F5F5F5F5F5F5F5F50FF50FF50FF5F50FF50FF5F50F0FF50FF5F5F50FF50FF5F50FF50F0F0FF50FF5F50FF50FF5F5F50FBEF5F5F5F5BEF5F5F5F5F5F5F5F5F5F5F5F5F5F5F5F5F5F5E2E2F5
310
E2EFE2F5E2E2F5F5F5F5F5F5F5F5F5F5F5F5F5F5F5F50F0FF50FF5F5F50FF50FF5F50FF50F0FF5F5F50FF50FF5F50FF50FF50FF50FF5F5F50FF50FF5F50FF50FF5F5F5F5F5F5F5F5F5F5F5F5F5F5F5F5F5F5F5F5F5F5F5F5F5F5F5F5F5F5F5F5F5F5F5F5F5F5F5F5F5F5F5F5F5F5F5F5F50FF5F50FF50FF5F50FF50FF5F50F
310
0FF5F5F50FF50FF5F50FF50FF50FF50FF50FF5F50FF50FF5F5F50FF5F5F5F5F5F5F5F5F5F5F5F5F5F5F5F5F5F5F5F5F5F5F5E2E2F5E2EFE2F5F5E2F5F5F5F5F5F5F5F5F5F5F5F5F5F5F5F50FF50FF50F0FF5F50FF50FF5F50F0FF5F5F50FF50FF5F50FF50FF5F50F0FF50FF5F5F50FF50FF5F50F0FF5F5F5F5F5F5F5F5F5F5
310
F5F5F5F5F5F5F5F5F5F5F5F5F5F5F5F5F5F5F5F5F5F5F5F5F5F5F5F5F5F5F5F5F5F5F5F5F5F5F50FF5F5F50FF50FF5F50FF50FF50FF5F5F50FF50FF5F50FF50FF5F50FF5F50FF50FF5F50FF50FF5F50FF5F5F5F5F5F5F5F5F5F5F5F5F5F5F5F5F5F5F5F5F5F5F5E2F5F5E2EFE2F5F5E2F5F5F5F5F5F5F5F5F5F5F5F5F5F5F5
310
F50FF5F50FF5F50FF5F50F0FF5F5F50FF5F50FF50FF5F50FF50FF5F50F0FF50FF50FF5F5F50FF50FF5F50FF5F5F5F5F5F5F5F5F5F5F5F5F5F5F5F5F5F5F5F5F5F5F5F5F5F5F5F5F5F5F5F5F5F5F5F5F5F5F5F5F5F5F5F5F5F5F5F5F50F0FF5F5F50F0FF5F5F50FF50F0FF5F50FF50FF5F50FF50FF5F50F0F0FF5F50FF50FF5
310
F50FF50FF50FF5F5F5F5F5F5F5F5F5F5F5F5F5F5F5F5F5F5F5F5F5F5F5E2F5F5E2EFE2F5F5E2F5F5F5F5F5F5F5F5F5F5F5F5F5F5F5F50F0FF5F50F0FF50FF5F50F0FF5F50FF50FF50FF5F50FF50FF5F50FF50FF5F50FF50FF5F5F50FF50FF50FF5F5F5F5F5F5F5F5F5F5F5F5F5F5F5F5F5F5F5F5F5F5F5F5F5F5F5F5F5F5F5
310
F5F5F5F5F5F5F5F5F5F5F5F5F5F5F5F5F5F50FF50FF5F50FF50FF5F5F50FF50FF50FF50FF5F50FF50FF5F50FF50FF50FF5F50FF50FF5F50FF50F0FF5F5F5F5F5F5F5F5F5F5F5F5F5F5F5F5F5F5F5F5F5F5F5E2F5F5E2EFE2F5F5E2F5F5F5F5F5F5F5F5F5F5F5F5F5F5F5F50FF50FF5F5F50FF50FF5F50F0FF50F0FF50FF5F5
310
0FF50FF5F50FF50F0F0FF5F50FF50FF5F5F50FF50F0FF5F5F5F5F5F5F5F5F5F5F5F5F5F5F5F5F5F5F5F5F5F5F5F5F5F5F5F5F5F5F5F5F5F5F5F5F5F5F5F5F5F5F5F5F5F5F5F5F50F0FF50FF5F50FF50FF5F5F50F0F0FF50FF5F50FF50FF5F50FF50F0F0FF50FF5F50FF50FF5F50FF50FF5F5F5F5F5F5F5F5F5F5F5F5F5F5F5
310
F5F5F5F5F5F5F5F5E2F5F5E2EFE2F5F5E2F5F5F5F5F5F5F5F5F5F5F5F5F5F5F5F50F0FF50FF5F5F50FF50FF5F50F0F0FF50FF5F50FF50FF5F50FF50FF50FF50FF5F50F0F0FF5F5F50FF50FF5F5F5F5F5F5F5F5F5F5F5F5F5F5F5F5F5F5F5F5F5F5F5F5F5F5F5F5F5F5F5F5F5F5F5F5F5F5F5F5F5F5F5F5F5F5F5F5F50FF50F
310
F50FF5F50FF50FF5F5F50FF50FF5F50FF50FF5F50FF50FF50FF50FF50FF5F50FF50FF5F50F0FF5F5F5F5F5F5F5F5F5F5F5F5F5F5F5F5F5F5F5F5F5F5F5E2F5F5E2EFE2F5F5E2F5F5F5F5F5F5F5F5F5F5F5F5F5F5F5F50FF50FF50FF5F5F50FF50FF5F50F0F0FF5F50FF50FF5F50FF50FF5F50F0FF50FF5F5F50F0FF5F5F50F
310
0FF5F5F5F5F5F5F5F5F5F5F5F5F5F5F5F5F5F5F5F5F5F5F5F5F5F5F5F5F5F5F5F5F5F5F5F5F5F5F5F5F5F5F5F5F5F5F5F5F50FF5F50FF50FF5F50FF50FF5F50F0FF5F50FF50FF5F50FF50FF5F50FF5F50FF50FF5F50FF50FF5F50FF5F5F5F5F5F5F5F5F5F5F5F5F5F5F5F5F5F5F5F5F5F5F5E2F5F5E2EFE2F5F5E2F5F5F5F5
310
F5F5F5F5F5F5F5F5F5F5F5F50FF5F50FF50FF5F5F50F0FF5F5F50FF5F50FF50FF5F50FF50FF5F5F50FF50FF50FF5F5F50F0FF5F5F50FF5F5F5F5F5F5F5F5F5F5F5F5F5F5F5F5F5F5F5F5F5F5F5F5F5F5F5F5F5F5F5F5F5F5F5F5F5F5F5F5F5F5F5F5F5F5F5F5F50F0FF5F50FF50FF5F50FF50FF50FF5F50FF50FF5F50FF50F
310
F5F5F50FF5F5F50FF50FF5F50FF50FF50FF5F5F5F5F5F5F5F5F5F5F5F5F5F5F5F5F5F5F5F5F5F5F5E2F5F5E2EFE2F5F5E2F5F5F5F5F5F5F5F5F5F5F5F5F5F5F5F50FF5F5F50FF50FF5F5F50F0FF5F50FF50FF50FF5F50FF50FF5F5F50F0FF5F50FF50FF5F5F50F0FF5F50FF5F5F5F5F5F5F5F5F5F5F5F5F5F5F5F5F5F5F5F5
310
F5F5F5F5F5F5F5F5F5F5F5F5F5F5F5F5F5F5F5F5F5F5F5F5F5F5F5F5F50F0FF5F5F50FF50FF5F50FF50F0FF50FF50FF5F50FF50FF5F5F50F0F0FF5F5F50FF50FF5F50FF50F0FF5F5F5F5F5F5F5F5F5F5F5F5F5F5F5F5F5F5F5F5F5F5F5E2F5F5E2EFE2F5E2E2F5F5F5F5F5F5F5F5F5F5F5F5F5F5F5F50F0F0FF5F50FF50FF5
310
F5F50F0FF50F0FF50FF5F50FF50FF5F5F50FF50F0FF5F50FF50FF5F5F50F0FF50FF5F5F5F5F5F5F5F5F5F5F5F5F5F5F5F5F5F5F5F5F5F5F5F5F5F5F5F5F5F5F5F5F5F5F5F5F5F5F5F5F5F5F5F5F5F5F5F5F50FF50FF5F5F50FF50FF5F50FF50F0FF50FF5F50FF50FF5F5F50FF50FF50FF5F5F50FF50FF5F50FF50FF5F5F5F5
310
F5F5F5F5F5F5F5F5F5F5F5F5F5F5F5F5F5F5F5E2E2F5E2EFE2F5E2E2F5F5F5F5F5F5F5F5F5F5F5F5F5F5F5F5F5F5F5F5F5F5F5F5F5F5F5F5F5F5F5F5F5F5F5F5F5F5F5F5F5F5F5F5F5F5F5F5F5F5F5F5F5F5F5F5F5F5F5F5F5F5F5F5F5F5F5F5F5F5F5F5F5F5F5F5F5F5F5F5F5F5F5F5F5F5F5F5F5F5F5F5F5F5F5F5F5F5F5
310
F5F5F5F5F5F5F5F5F5F5F5F5F5F5F5F5F5F5F5F5F5F5F5F5F5F5F5F5F5F5F5F5F5F5F5F5F5F5F5F5F5F5F5F5F5F5F5F5F5F5F5F5F5F5F5F5F5F5F5F5F5F5F5F5F5F5F5F5F5F5F5F5E2E2F5E2EFE2F5E2E2F5F5F5F5F5F5F5F5F5F5F5F5F5F5F5F5F5F5E2E2E2E2E2F5F5E2E2E2E2E2E2E2E2E2F5E2E2E2E2E2E2E2E2E2E2E2
310
E2E2E2E2E2E2E2E2E2F5F5F5F5F5F5F5F5F5F5F5F5F5F5F5F5F5F5F5F5F5F5F5F5F5F5F5F5F5F5F5F5F5F5F5F5F5F5F5F5F5F5F5F5F5F5F5F5F5F5F5F5F5F5F5F5F5F5F5F5F5F5F5F5F5F5F5F5F5F5F5F5F5F5F5F5F5F5F5F5F5F5F5F5F5F5F5F5F5F5F5F5F5F5F5F5F5F5F5F5F5F5F5F5F5F5F5F5F5F5F5F5F5F5F5F5E2E2
310
F5E2EFE2F5E2E2F5F5F5F5F5F5F5F5F5F5F5F5F5F5F5F5F5F5E2E2E2E2E2F5F5E2E2E2E2E2E2E2E2E2E2F5E2E2E2E2E2E2E2E2E2E2F5E2E2E2E2E2E2E2E2E2F5F5F5F5F5F5F5F5F5F5F5F5F5F5F5F5F5F5F5F5F5F5F5F5F5F5F5F5F5F5F5F5F5F5F5F5F5F5F5F5F5F5F5F5F5F5F5F5F5F5F5F5F5F5F5F5F5F5F5F5F5F5F5F5
310
F5F5F5F5F5F5F5F5F5F5F5F5F5F5F5F5F5F5F5F5F5F5F5F5F5F5F5F5F5F5F5F5F5F5F5F5F5F5F5F5F5F5F5F5F5F5F5F5F5F5F5E2E2F5E2EFE2F5E2E2F5F5F5F5F5F5F5F5F5F5F5F5F5F5F5F5F5F5E2E2E2E2E2F5F5E2E2E2E2E2E2E2E2E2E2E2E2E2E2E2E2E2E2E2E2E2E2E2E2E2E2E2E2E2E2E2F5F5F5F5F5F5F5F5F5F5F5
310
F5F5F5F5F5F5F5F5F5F5F5F5F5F5F5F5F5F5F5F5F5F5F5F5F5F5F5F5F5F5F5F5F5F5F5F5F5F5F5F5F5F5F5F5F5F5F5F5E2E2E2E2E2E2F5E2E2E2E2E2E2E2E2E2E2E2E2E2E2E2E2E2E2F5E2E2E2E2E2E2E2E2E2E2E2E2F5F5F5F5F5F5F5F5F5F5F5F5F5F5F5F5F5F5E2E2F5E2EFE2F5E2E2F5F5F5F5F5F5F5F5F5F5F5F5F5F5
310
F5F5F5F5F5F5F5E2E2F5F5E2E2E2F5F5E2F5F5E2F5F5F5F5E2F5F5F5F5F5F5F5F5E2F5E2F5F5F5F5F5F5F5F5F5F5F5F5F5F5F5F5F5F5F5F5F5F5F5F5F5F5F5F5F5F5F5F5F5F5F5F5F5F5F5F5F5F5F5F5F5F5F5F5F5F5F5F5F5F5F5F5F5F5F5F5F5F5F5F5F5E2E2E2E2E2F5F5F5E2E2E2E2E2E2E2E2E2E2E2E2E2E2E2E2E2F5
310
E2E2E2E2E2E2E2E2E2E2E2E2F5F5F5F5F5F5F5F5F5F5F5F5F5F5F5F5F5F5E2E2F5E2EFE2F5E2E2F5F5F5F5F5F5F5F5F5F5F5F5F5F5F5F5F5F5F5F5F5F5F5F5F5F5F5F5F5F5F5F5F5F5F5F5F5F5F5F5F5F5F5F5F5F5F5F5F5F5F5F5F5E2E2F5F5F5F5F5F5F5F5F5F5F5F5F5F5F5F5F5F5F5F5F5F5F5F5F5F5F5F5F5F5F5F5F5
310
F5F5F5F5F5F5F5F5F5F5F5F5F5F5F5F5F5F5F5F5F5F5F5F5F5F5F5E2E2E2E2E2E2F5E2E2E2E2E2E2E2E2E2E2E2E2E2E2E2E2E2E2E2E2E2E2E2E2E2E2E2E2E2E2E2F5F5F5F5F5F5F5F5F5F5F5F5F5F5F5F5F5F5E2E2F5E2EFE2F5E2E2F5F5F5F5F5F5F5F5F5F5F5F5F5F5F5F5F5F5E2E2E2E2F5F5E2E2F5F5F5F5F5F5F5E2E2
310
E2E2E2E2E2F5F5E2F5E2F5E2E2E2E2E2E2E2E2E2F5F5F5F5F5F5F5F5F5F5F5F5F5F5F5F5F5F5F5F5F5F5F5F5F5F5F5F5F5F5F5F5F5F5F5F5F5F5F5F5F5F5F5F5F5F5F5F5F5F5F5F5F5F5F5F5F5F5F5F5F5F5F5E2E2F5F5E2E2E2E2F5E2E2F5E2F5F5F5F5F5E2F5F5F5F5F5F5F5F5E2F5E2F5F5F5F5F5F5F5F5F5F5F5F5F5F5
310
F5F5F5F5F5F5F5F5F5E2E2F5E2EFE2F5E2E2F5F5F5F5F5F5F5F5F5F5F5F5F5F5F5F5F5F5E2E2E2E2F5F5E2E2F5F5F5F5F5F5F5E2E2E2E2E2E2E2E2F5E2F5E2E2E2E2E2E2E2E2E2E2E2F5F5F5F5F5F5F5F5F5F5F5F5F5F5F5F5F5F5F5F5F5F5F5F5F5F5F5F5F5F5F5F5F5F5F5F5F5F5F5F5F5F5F5F5F5F5F5F5F5F5F5F5F5F5
310
F5F5F5F5F5F5F5F5F5F5F5F5F5F5F5F5F5F5F5F5F5F5F5F5E2F5F5F5F5F5F5F5F5F5F5F5F5F5F5F5F5F5F5F5F5F5F5F5F5F5F5F5F5F5F5F5F5F5F5F5F5F5E2E2F5E2EFE2F5E2E2F5F5F5F5F5F5F5F5F5F5F5F5F5F5F5F5F5F5E2E2E2E2F5F5E2E2F5F5E2E2E2F5F5E2E2E2E2E2E2E2E2F5E2E2E2E2E2E2E2E2E2E2E2E2E2F5
310
F5F5F5F5F5F5F5F5F5F5F5F5F5F5F5F5F5F5F5F5F5F5F5F5F5F5F5F5F5F5F5F5F5F5F5F5F5F5F5F5F5F5F5F5E2E2E2E2E2F5F5E2F5F5F5F5F5F5F5E2F5E2E2F5F5F5E2F5E2E2E2E2E2E2E2F5E2E2F5F5E2E2E2E2E2E2E2E2E2F5F5F5F5F5F5F5F5F5F5F5F5F5F5F5F5F5F5F5F5F5F5F5F5F5F5E2E2F5E2EFE2F5E2E2F5F5F5
310
F5F5F5F5F5F5F5F5F5F5F5F5F5F5F5E2E2E2E2F5F5E2E2F5F5F5F5F5F5F5F5F5E2F5F5F5F5F5F5E2E2E2F5E2E2F5F5F5F5F5F5F5F5F5F5F5F5F5F5F5F5F5F5F5F5F5F5F5F5F5F5F5F5F5F5F5F5F5F5F5F5F5F5F5F5F5F5F5F5F5F5F5F5F5F5F5F5F5E2E2E2E2F5F5E2F5F5F5E2E2F5F5E2E2E2E2E2E2E2E2E2E2E2E2E2E2E2
310
E2F5E2E2F5F5E2E2E2E2E2E2E2E2E2F5F5F5F5F5F5F5F5F5F5F5F5F5F5F5F5F5F5F5F5F5F5F5F5F5F5E2E2F5E2EFE2F5E2E2F5F5F5F5F5F5F5F5F5F5F5F5F5F5F5F5F5F5F5F5F5F5F5F5F5F5F5F5F5F5F5F5F5F5F5F5F5F5F5F5F5F5F5F5F5F5F5F5F5F5F5F5F5F5F5F5F5F5F5F5F5F5F5F5F5F5F5F5F5F5F5F5F5F5F5F5F5
310
F5F5F5F5F5F5F5F5F5F5F5F5F5F5F5F5F5F5F5F5F5F5F5E2E2E2E2E2F5F5E2F5F5F5F5F5F5F5E2F5E2E2F5F5F5E2F5E2E2E2E2E2E2E2E2F5E2F5F5E2E2E2E2E2E2E2E2E2F5F5F5F5F5F5F5F5F5F5F5F5F5F5F5F5F5F5F5F5F5F5F5F5F5F5E2E2F5E2EFE2F5E2E2F5F5F5F5F5F5F5F5F5F5F5F5F5F5F5F5F5F5F5F5F5F5F5F5
310
F5F5F5F5F5F5F5F5F5F5F5F5F5F5F5F5F5F5F5F5F5F5F5F5F5F5F5F5F5F5F5F5F5F5F5F5F5F5F5F5F5F5F5F5F5F5F5F5F5F5F5F5F5F5F5F5F5F5F5F5F5F5F5F5F5F5F5F5F5F5F5F5F5F5F5F5E2E2E2E2E2F5F5E2F5F5F5F5F5F5F5E2E2E2E2F5F5F5E2E2F5E2E2F5F5F5F5F5F5F5F5F5E2F5F5F5F5F5F5F5F5F5F5F5F5F5F5
310
F5F5F5F5F5F5F5F5F5F5F5F5F5F5F5F5F5F5F5F5E2E2F5E2EFE2F5E2E2F5F5F5F5F5F5F5F5F5F5F5F5F5F5F5F5F5F5F5F5F5F5F5F5F5F5F5F5F5F5F5F5F5F5F5F5F5F5F5F5F5F5F5F5F5F5F5F5F5F5F5F5F5F5F5F5F5F5F5F5F5F5F5F5F5F5F5F5F5F5F5F5F5F5F5F5F5F5F5F5F5F5F5F5F5F5F5F5F5F5F5F5F5F5F5F5F5F5
310
F5F5F5F5F5F5F5F5F5F5F5F5F5F5F5F5F5F5F5F5F5F5F5F5F5F5F5F5F5F5F5F5F5F5F5F5F5F5F5F5F5F5F5F5F5F5F5F5F5F5F5F5F5F5F5F5F5F5F5F5F5F5F5F5F5F5F5F5F5F5F5F5F5E2E2F5E2EFE2F5E2E2F5F5F5F5F5F5F5F5F5F5F5F5F5F5F5F5F5F5F5F5F5F5F5F5F5F5F5F5F5F5F5F5F5F5F5F5F5F5F5F5F5F5F5F5F5
310
F5F5F5F5F5F5F5F5F5F5F5F5F5F5F5F5F5F5F5F5F5F5F5F5F5F5F5F5F5F5F5F5F5F5F5F5F5F5F5F5F5F5F5F5F5F5F5F5F5F5F5F5F5F5F5F5F5F5F5F5F5F5F5F5F5F5F5F5F5F5F5F5F5F5F5F5F5F5F5F5F5F5F5F5F5F5F5F5F5F5F5F5F5F5F5F5F5F5F5F5F5F5F5F5F5F5F5F5F5F5F5F5F5F5F5F5F5F5F5F5F5F5F5F5F5F5E2
310
E2F5E2EFE2F5E2E2F5F5F5F5F5F5F5F5F5F5F5F5F5F5F5F5F5F5F5F5F5F5F5F5F5F5F5F5F5F5F5F5F5F5F5F5F5F5F5F5F5F5F5F5F5F5F5F5F5F5F5F5F5F5F5F5F5F5F5F5F5F5F5F5F5F5F5F5F5F5F5F5F5F5F5F5F5F5F5F5F5F5F5F5F5F5F5F5F5F5F5F5F5F5F5F5F5F5F5F5F5F5F5F5F5F5F5F5F5F5F5F5F5F5F5F5F5F5F5
310
F5F5F5F5F5F5F5F5F5F5F5F5F5F5F5F5F5F5F5F5F5F5F5F5F5F5F5F5F5F5F5F5F5F5F5F5F5F5F5F5F5F5F5F5F5F5F5F5F5F5F5F5E2E2F5E2EFE2F5F5E2F5F5F5F5F5F5F5F5F5F5F5F5F5F5F5F5F5F5F5F5F5F5F5F5F5F5F5F5F5F5F5F5F5F5F5F5F5F5F5F5F5F5F5F5F5F5F5F5F5F5F5F5F5F5F5F5F5F5F5F5F5F5F5F5F5F5
310
F5F5F5F5F5F5F5F5F5F5F5F5F5F5F5F5F5F5F5F5F5F5F5F5F5F5F5F5F5F5F5F5F5F5F5F5F5F5F5F5F5F5F5F5F5F5F5F5F5F5F5F5F5F5F5F5F5F5F5F5F5F5F5F5F5F5F5F5F5F5F5F5F5F5F5F5F5F5F5F5F5F5F5F5F5F5F5F5F5F5F5F5F5F5F5F5F5F5F5F5F5F5F5F5F5E2F5F5E2EFE2F5F5E2F5F5F5F5F5F5F5F5F5F5F5F5F5
310
F5F5F5F5F5F5F5F5F5F5F5F5F5F5F5F5F5F5F5F5F5F5F5F5F5F5F5F5F5F5F5F5F5F5F5F5F5F5F5F5F5F5F5F5F5F5F5F5F5F5F5F5F5F5F5F5F5F5F5F5F5F5F5F5F5F5F5F5F5F5F5F5F5F5F5F5F5F5F5F5F5F5F5F5F5F5F5F5F5F5F5F5F5F5F5F5F5F5F5F5F5F5F5F5F5F5F5F5F5F5F5F5F5F5F5F5F5F5F5F5F5F5F5F5F5F5F5
310
F5F5F5F5F5F5F5F5F5F5F5F5F5F5F5F5F5F5F5F5F5F5F5F5F5F5F5F5F5F5F5E2F5F5E2EFE2F5F5E2F5F5F5F5F5F5F5F5F5F5F5F5F5F5F5F5F5F5F5F5F5F5F5F5F5F5F5F5F5F5F5F5F5F5F5F5F5F5F5F5F5F5F5F5F5F5F5F5F5F5F5F5F5F5F5F5F5F5F5F5F5F5F5F5F5F5F5F5F5F5F5F5F5F5F5F5F5F5F5F5F5F5F5F5F5F5F5
310
F5F5F5F5F5F5F5F5F5F5F5F5F5F5F5F5F5F5F5F5F5F5F5F5F5F5F5F5F5F5F5F5F5F5F5F5F5F5F5F5F5F5F5F5F5F5F5F5F5F5F5F5F5F5F5F5F5F5F5F5F5F5F5F5F5F5F5F5F5F5F5F5F5F5F5F5F5F5F5F5F5F5F5F5E2F5F5E2EFE2F5F5E2F5F5F5F5F5F5F5F5F5F5F5F5F5F5F5F5F5F5F5F5F5F5F5F5F5F5F5F5F5F5F5F5F5F5
310
F5F5F5F5F5F5F5F5F5F5F5F5F5F5F5F5F5F5F5F5F5F5F5F5F5F5F5F5F5F5F5F5F5F5F5F5F5F5F5F5F5F5F5F5F5F5F5F5F5F5F5F5F5F5F5F5F5F5F5F5F5F5F5F5F5F5F5F5F5F5F5F5F5F5F5F5F5F5F5F5F5F5F5F5F5F5F5F5F5F5F5F5F5F5F5F5F5F5F5F5F5F5F5F5F5F5F5F5F5F5F5F5F5F5F5F5F5F5F5F5F5F5F5F5F5F5F5
310
F5F5F5F5F5F5F5F5F5F5E2F5F5E2EFE2F5F5E2F5F5F5F5F5F5F5F5F5F5F5F5F5F5F5F5F5F5F5F5F5F5F5F5F5F5F5F5F5F5F5F5F5F5F5F5F5F5F5F5F5F5F5F5F5F5F5F5F5F5F5F5F5F5F5F5F5F5F5F5F5F5F5F5F5F5F5F5F5F5F5F5F5F5F5F5F5F5F5F5F5F5F5F5F5F5F5F5F5F5F5F5F5F5F5F5F5F5F5F5F5F5F5F5F5F5F5F5
310
F5F5F5F5F5F5F5F5F5F5F5F5F5F5F5F5F5F5F5F5F5F5F5F5F5F5F5F5F5F5F5F5F5F5F5F5F5F5F5F5F5F5F5F5F5F5F5F5F5F5F5F5F5F5F5F5F5F5F5F5F5F5F5E2F5F5E2EFE2F5F5E2F5F5E2E2E2E2E2E2E2E2E2E2E2E2E2E2E2E2E2E2E2E2E2E2E2E2E2E2E2E2E2F5F5F5F5F5F5F5F5F5F5F5F5F5F5F5F5F5F5F5F5F5F5F5F5
310
F5F5F5F5F5F5F5F5F5F5F5F5F5F5F5F5F5F5F5F5F5F5F5F5F5F5F5F5F5F5F5F5F5F5F5F5F5F5F5F5F5F5F5F5F5F5F5F5F5F5F5F5F5F5F5F5F5F5F5F5F5F5F5F5F5F5F5F5F5F5F5F5F5F5F5F5F5F5F5F5F5F5F5F5F5F5F5F5F5F5F5F5F5F5F5F5F5F5F5F5F5F5F5F5F5F5F5F5F5F5F5F5F5F5F5F5E2F5F5E2EFE2F5F5E2F5F5
310
E2E2E2E2E2E2E2E2E2E2E2E2E2E2E2E2E2E2E2E2E2E2E2E2E2E2E2E2E2F5F5F5F5F5F5F5F5F5F5F5F5F5F5F5F5F5F5F5F5F5F5F5F5F5F5F5F5F5F5F5F5F5F5F5F5F5F5F5F5F5F5F5F5F5F5F5F5F5F5F5F5F5F5F5F5F5F5F5F5F5F5F5F5F5F5F5F5F5F5F5F5F5F5F5F5F5F5F5F5F5F5F5F5F5F5F5F5F5F5F5F5F5F5F5F5F5F5
310
F5F5F5F5F5F5F5F5F5F5F5F5F5F5F5F5F5F5F5F5F5F5F5F5F5F5F5F5F5F5F5F5F5F5F5F5F5F5F5F5F5F5E2F5F5E2EFE2F5F5E2F5F5E2E2E2E2E2E2E2E2E2E2E2E2E2E2E2E2E2E2E2E2E2E2E2E2E2E2E2E2E2F5F5F5F5F5F5F5F5F5F5F5F5F5F5F5F5F5F5F5F5F5F5F5F5F5F5F5F5F5F5F5F5F5F5F5F5F5F5F5F5F5F5F5F5F5
310
F5F5F5F5F5F5F5F5F5F5F5F5F5F5F5F5F5F5F5F5F5F5F5F5F5F5F5F5F5F5F5F5F5F5F5F5F5F5F5F5F5F5F5F5F5F5F5F5F5F5F5F5F5F5F5F5F5F5F5F5F5F5F5F5F5F5F5F5F5F5F5F5F5F5F5F5F5F5F5F5F5F5F5F5F5F5F5F5F5F5F5F5F5F5F5E2F5F5E2EFE2F5F5E2F5F5E2E2E2E2E2E2E2E2E2E2E2E2E2E2E2E2E2E2E2E2E2
310
E2E2E2E2E2E2E2E2F5F5F5F5F5F5F5F5F5F5F5F5F5F5F5F5F5F5F5F5F5F5F5F5F5F5F5F5F5F5F5F5F5F5F5F5F5F5F5F5F5F5F5F5F5F5F5F5F5F5F5F5F5F5F5F5F5F5F5F5F5F5F5F5F5F5F5F5F5F5F5F5F5F5F5F5F5F5F5F5F5F5F5F5F5F5F5F5F5F5F5F5F5F5F5F5F5F5F5F5F5F5F5F5F5F5F5F5F5F5F5F5F5F5F5F5F5F5F5
310
F5F5F5F5F5F5F5F5F5F5F5F5F5F5F5F5F5F5F5F5F5E2F5F5E2EFE2F5E2E2F5F5E2E2E2E2E2E2E2E2E2E2E2E2E2E2E2E2E2E2E2E2E2E2E2E2E2E2E2E2E2E2E2E2E2E2E2E2E2E2E2E2E2E2E2E2E2E2E2E2E2E2E2E2E2E2E2E2E2E2E2E2E2E2E2E2E2E2E2E2F5F5F5F5F5F5F5F5F5F5F5F5F5F5F5F5F5F5F5F5F5F5F5F5F5F5F5
310
F5F5F5F5F5F5F5F5F5F5F5F5F5F5F5F5F5F5F5F5F5F5F5F5F5F5F5F5F5F5F5F5F5F5F5F5F5F5F5F5F5F5F5F5F5F5F5F5F5F5F5F5F5F5F5F5F5F5F5F5F5F5F5F5F5F5F5F5F5F5F5F5F5F5E2E2F5E2EFE2F5E2E2F5F5E2E2E2E2E2E2E2E2E2E2E2E2E2E2E2E2E2E2E2E2E2E2E2E2E2E2E2E2E2E2E2E2E2E2E2E2E2E2E2E2E2E2
310
E2E2E2E2E2E2E2E2E2E2E2E2E2E2E2E2E2E2E2E2E2E2E2E2E2E2F5F5F5F5F5F5F5F5F5F5F5F5F5F5F5F5F5F5F5F5F5F5F5F5F5F5F5F5F5F5F5F5F5F5F5F5F5F5F5F5F5F5F5F5F5F5F5F5F5F5F5F5F5F5F5F5F5F5F5F5F5F5F5F5F5F5F5F5F5F5F5F5F5F5F5F5F5F5F5F5F5F5F5F5F5F5F5F5F5F5F5F5F5F5F5F5F5F5F5F5F5
310
E2E2F5E2EFE2F5E2E2F5F5E2E2E2E2E2E2E2E2E2E2E2E2E2E2E2E2E2E2E2E2E2E2E2E2E2E2E2E2E2E2E2E2E2E2E2E2E2E2E2E2E2E2E2E2E2E2E2E2E2E2E2E2E2E2E2E2E2E2E2E2E2E2E2E2E2E2E2E2F5F5F5F5F5F5F5F5F5F5F5F5F5F5F5F5F5F5F5F5F5F5F5F5F5F5F5F5F5F5F5F5F5F5F5F5F5F5F5F5F5F5F5F5F5F5F5F5
310
F5F5F5F5F5F5F5F5F5F5F5F5F5F5F5F5F5F5F5F5F5F5F5F5F5F5F5F5F5F5F5F5F5F5F5F5F5F5F5F5F5F5F5F5F5F5F5F5F5F5F5F5F5E2E2F5E2EFE2F5E2E2F5F5E2E2E2E2E2E2E2E2E2E2E2E2E2E2E2E2E2E2E2E2E2E2E2E2E2E2E2E2E2E2E2E2E2E2E2E2E2E2E2E2E2E2E2E2E2E2E2E2E2E2E2E2E2E2E2E2E2E2E2E2E2E2E2
310
E2E2E2E2E2F5F5F5F5F5F5F5F5F5F5F5F5F5F5F5F5F5F5F5F5F5F5F5F5F5F5F5F5F5F5F5F5F5F5F5F5F5F5F5F5F5F5F5F5F5F5F5F5F5F5F5F5F5F5F5F5F5F5F5F5F5F5F5F5F5F5F5F5F5F5F5F5F5F5F5F5F5F5F5F5F5F5F5F5F5F5F5F5F5F5F5F5F5F5F5F5F5F5F5F5F5E2E2F5E2EFE2F5E2E2F5F5E2E2E2E2E2E2E2E2E2E2
310
E2E2E2E2E2E2E2E2E2E2E2E2E2E2E2E2E2E2E2E2E2E2E2E2E2E2E2E2E2E2E2E2E2E2E2E2E2E2E2E2E2E2E2E2E2E2E2E2E2E2E2E2E2E2E2E2E2E2F5F5F5F5F5F5F5F5F5F5F5F5F5F5F5F5F5F5F5F5F5F5F5F5F5F5F5F5F5F5F5F5F5F5F5F5F5F5F5F5F5F5F5F5F5F5F5F5F5F5F5F5F5F5F5F5F5F5F5F5F5F5F5F5F5F5F5F5F5
310
F5F5F5F5F5F5F5F5F5F5F5F5F5F5F5F5F5F5F5F5F5F5F5F5F5F5F5F5F5F5F5F5E2E2F5E2EFE2F5E2E2F5F5F5F5F5F5F5F5F5F5F5F5F5F5F5F5F5F5F5F5F5F5F5F5F5F5F5F5F5F5F5F5F5F5F5F5F5F5F5F5F5F5F5F5F5F5F5F5F5F5F5F5F5F5F5F5F5F5F5F5F5F5F5F5F5F5F5F5F5F5F5F5F5F5F5F5F5F5F5F5F5F5F5F5F5F5
310
F5F5F5F5F5F5F5F5F5F5F5F5F5F5F5F5F5F5F5F5F5F5F5F5F5F5F5F5F5F5F5F5F5F5F5F5F5F5F5F5F5F5F5F5F5F5F5F5F5F5F5F5F5F5F5F5F5F5F5F5F5F5F5F5F5F5F5F5F5F5F5F5F5F5F5F5F5F5F5F5F5F5F5F5F5E2E2F5E2EFE2F5E2E2E2E2E2E2E2E2E2E2E2E2E2E2E2E2E2E2E2E2E2E2E2E2E2E2E2E2E2E2E2E2E2E2E2
310
E2E2E2E2E2E2E2E2E2E2E2E2E2E2E2E2E2E2E2E2E2E2E2E2E2E2E2E2E2E2E2E2E2E2E2E2E2E2E2E2E2E2E2E2E2E2E2E2E2E2E2E2E2E2E2E2E2E2E2E2E2E2E2E2E2E2E2E2E2E2E2E2E2E2E2E2E2E2E2E2E2E2E2E2E2E2E2E2E2E2E2E2E2E2E2E2E2E2E2E2E2E2E2E2E2E2E2E2E2E2E2E2E2E2E2E2E2E2E2E2E2E2E2E2E2E2E2
310
E2E2E2E2E2E2E2E2E2E2E2E2E2F5E2EFE2F5E2E2E2E2E2E2E2E2F5F5F5F5F5F5F5F5F5E2E2E2E2E2E2E2E2E2E2E2E2E2E2E2E2F5F5F5F5F5F5F5F5F5E2E2E2E2E2E2E2E2E2E2E2E2E2E2E2E2F5F5F5F5F5F5F5F5F5E2E2E2E2E2E2E2E2E2E2E2E2E2E2E2E2F5F5F5F5F5F5F5F5F5E2E2E2E2E2E2E2E2E2E2E2E2E2E2E2E2F5
310
F5F5F5F5F5F5F5F5E2E2E2E2E2E2E2E2E2E2E2E2E2E2E2E2F5F5F5F5F5F5F5F5F5E2E2E2E2E2E2E2E2E2E2E2E2E2E2E2E2F5F5F5F5F5F5F5F5F5E2E2E2E2E2E2E2E2F5E2EFE2F5F5F5F5F5F5F5F5F5F5F5F5F5F5F5F5F5F5F5F5F5F5F5F5F5F5F5F5F5F5F5F5F5F5F5F5F5F5F5F5F5F5F5F5F5F5F5F5F5F5F5F5F5F5F5F5F5
310
F5F5F5F5F5F5F5F5F5F5F5F5F5F5F5F5F5F5F5F5F5F5F5F5F5F5F5F5F5F5F5F5F5F5F5F5F5F5F5F5F5F5F5F5F5F5F5F5F5F5F5F5F5F5F5F5F5F5F5F5F5F5F5F5F5F5F5F5F5F5F5F5F5F5F5F5F5F5F5F5F5F5F5F5F5F5F5F5F5F5F5F5F5F5F5F5F5F5F5F5F5F5F5F5F5F5F5F5F5F5F5F5F5F5F5F5F5F5F5F5E2EFE2E2E2E2E2
310
E2E2E2E2E2E2E2E2E2E2E2E2E2E2E2E2E2E2E2E2E2E2E2E2E2E2E2E2E2E2E2E2E2E2E2E2E2E2E2E2E2E2E2E2E2E2E2E2E2E2E2E2E2E2E2E2E2E2E2E2E2E2E2E2E2E2E2E2E2E2E2E2E2E2E2E2E2E2E2E2E2E2E2E2E2E2E2E2E2E2E2E2E2E2E2E2E2E2E2E2E2E2E2E2E2E2E2E2E2E2E2E2E2E2E2E2E2E2E2E2E2E2E2E2E2E2E2
310
E2E2E2E2E2E2E2E2E2E2E2E2E2E2E2E2E2E2E2E2E2E2E2E2E2E2E2E2E2E2E2E2E2E2E2E2E2E2E2E2E2E2E2E2E2E2E2EF
  0
XRECORD
  5
28A4
102
{ACAD_REACTORS
330
28A3
102
}
330
28A3
100
AcDbXrecord
280
     1
102
SHADEPLOT
 70
     0
102
SHADEPLOTRESLEVEL
 70
     2
102
SHADEPLOTCUSTOMDPI
 70
   300
  0
XRECORD
  5
719
102
{ACAD_REACTORS
330
718
102
}
330
718
100
AcDbXrecord
280
     1
102
MATERIAL
148
0.0
149
0.0
149
0.0
 93
        0
 94
      127
282
     0
 72
     1
 77
     1
171
     1
175
     1
179
     1
273
     0
  0
XRECORD
  5
717
102
{ACAD_REACTORS
330
716
102
}
330
716
100
AcDbXrecord
280
     1
102
MATERIAL
148
0.0
149
0.0
149
0.0
 93
        0
 94
      127
282
     0
 72
     1
 77
     1
171
     1
175
     1
179
     1
273
     0
  0
XRECORD
  5
71B
102
{ACAD_REACTORS
330
71A
102
}
330
71A
100
AcDbXrecord
280
     1
102
MATERIAL
148
0.0
149
0.0
149
0.0
 93
        0
 94
      127
282
     0
 72
     1
 77
     1
171
     1
175
     1
179
     1
273
     0
  0
CELLSTYLEMAP
  5
28A0
102
{ACAD_REACTORS
330
283E
102
}
330
283E
100
AcDbCellStyleMap
 90
        3
300
CELLSTYLE
  1
TABLEFORMAT_BEGIN
 90
        5
170
     1
 91
        0
 92
    32768
 62
   257
 93
        1
300
CONTENTFORMAT
  1
CONTENTFORMAT_BEGIN
 90
        0
 91
        0
 92
      512
 93
        0
300

 40
0.0
140
1.0
 94
        5
 62
     0
340
11
144
6.0
309
CONTENTFORMAT_END
171
     1
301
MARGIN
  1
CELLMARGIN_BEGIN
 40
1.5
 40
1.5
 40
1.5
 40
1.5
 40
0.18
 40
0.18
309
CELLMARGIN_END
 94
        6
 95
        1
302
GRIDFORMAT
  1
GRIDFORMAT_BEGIN
 90
        0
 91
        1
 62
     0
 92
       -2
340
0
 93
        0
 40
0.045
309
GRIDFORMAT_END
 95
        2
302
GRIDFORMAT
  1
GRIDFORMAT_BEGIN
 90
        0
 91
        1
 62
     0
 92
       -2
340
0
 93
        0
 40
0.045
309
GRIDFORMAT_END
 95
        4
302
GRIDFORMAT
  1
GRIDFORMAT_BEGIN
 90
        0
 91
        1
 62
     0
 92
       -2
340
0
 93
        0
 40
0.045
309
GRIDFORMAT_END
 95
        8
302
GRIDFORMAT
  1
GRIDFORMAT_BEGIN
 90
        0
 91
        1
 62
     0
 92
       -2
340
0
 93
        0
 40
0.045
309
GRIDFORMAT_END
 95
       16
302
GRIDFORMAT
  1
GRIDFORMAT_BEGIN
 90
        0
 91
        1
 62
     0
 92
       -2
340
0
 93
        0
 40
0.045
309
GRIDFORMAT_END
 95
       32
302
GRIDFORMAT
  1
GRIDFORMAT_BEGIN
 90
        0
 91
        1
 62
     0
 92
       -2
340
0
 93
        0
 40
0.045
309
GRIDFORMAT_END
309
TABLEFORMAT_END
  1
CELLSTYLE_BEGIN
 90
        1
 91
        1
300
_TITLE
309
CELLSTYLE_END
300
CELLSTYLE
  1
TABLEFORMAT_BEGIN
 90
        5
170
     1
 91
        0
 92
        0
 62
   257
 93
        1
300
CONTENTFORMAT
  1
CONTENTFORMAT_BEGIN
 90
        0
 91
        0
 92
      512
 93
        0
300

 40
0.0
140
1.0
 94
        5
 62
     0
340
11
144
4.5
309
CONTENTFORMAT_END
171
     1
301
MARGIN
  1
CELLMARGIN_BEGIN
 40
1.5
 40
1.5
 40
1.5
 40
1.5
 40
0.18
 40
0.18
309
CELLMARGIN_END
 94
        6
 95
        1
302
GRIDFORMAT
  1
GRIDFORMAT_BEGIN
 90
        0
 91
        1
 62
     0
 92
       -2
340
0
 93
        0
 40
0.045
309
GRIDFORMAT_END
 95
        2
302
GRIDFORMAT
  1
GRIDFORMAT_BEGIN
 90
        0
 91
        1
 62
     0
 92
       -2
340
0
 93
        0
 40
0.045
309
GRIDFORMAT_END
 95
        4
302
GRIDFORMAT
  1
GRIDFORMAT_BEGIN
 90
        0
 91
        1
 62
     0
 92
       -2
340
0
 93
        0
 40
0.045
309
GRIDFORMAT_END
 95
        8
302
GRIDFORMAT
  1
GRIDFORMAT_BEGIN
 90
        0
 91
        1
 62
     0
 92
       -2
340
0
 93
        0
 40
0.045
309
GRIDFORMAT_END
 95
       16
302
GRIDFORMAT
  1
GRIDFORMAT_BEGIN
 90
        0
 91
        1
 62
     0
 92
       -2
340
0
 93
        0
 40
0.045
309
GRIDFORMAT_END
 95
       32
302
GRIDFORMAT
  1
GRIDFORMAT_BEGIN
 90
        0
 91
        1
 62
     0
 92
       -2
340
0
 93
        0
 40
0.045
309
GRIDFORMAT_END
309
TABLEFORMAT_END
  1
CELLSTYLE_BEGIN
 90
        2
 91
        1
300
_HEADER
309
CELLSTYLE_END
300
CELLSTYLE
  1
TABLEFORMAT_BEGIN
 90
        5
170
     1
 91
        0
 92
        0
 62
   257
 93
        1
300
CONTENTFORMAT
  1
CONTENTFORMAT_BEGIN
 90
        0
 91
        0
 92
      512
 93
        0
300

 40
0.0
140
1.0
 94
        2
 62
     0
340
11
144
4.5
309
CONTENTFORMAT_END
171
     1
301
MARGIN
  1
CELLMARGIN_BEGIN
 40
1.5
 40
1.5
 40
1.5
 40
1.5
 40
0.18
 40
0.18
309
CELLMARGIN_END
 94
        6
 95
        1
302
GRIDFORMAT
  1
GRIDFORMAT_BEGIN
 90
        0
 91
        1
 62
     0
 92
       -2
340
0
 93
        0
 40
0.045
309
GRIDFORMAT_END
 95
        2
302
GRIDFORMAT
  1
GRIDFORMAT_BEGIN
 90
        0
 91
        1
 62
     0
 92
       -2
340
0
 93
        0
 40
0.045
309
GRIDFORMAT_END
 95
        4
302
GRIDFORMAT
  1
GRIDFORMAT_BEGIN
 90
        0
 91
        1
 62
     0
 92
       -2
340
0
 93
        0
 40
0.045
309
GRIDFORMAT_END
 95
        8
302
GRIDFORMAT
  1
GRIDFORMAT_BEGIN
 90
        0
 91
        1
 62
     0
 92
       -2
340
0
 93
        0
 40
0.045
309
GRIDFORMAT_END
 95
       16
302
GRIDFORMAT
  1
GRIDFORMAT_BEGIN
 90
        0
 91
        1
 62
     0
 92
       -2
340
0
 93
        0
 40
0.045
309
GRIDFORMAT_END
 95
       32
302
GRIDFORMAT
  1
GRIDFORMAT_BEGIN
 90
        0
 91
        1
 62
     0
 92
       -2
340
0
 93
        0
 40
0.045
309
GRIDFORMAT_END
309
TABLEFORMAT_END
  1
CELLSTYLE_BEGIN
 90
        3
 91
        2
300
_DATA
309
CELLSTYLE_END
  0
XRECORD
  5
28A5
102
{ACAD_REACTORS
330
283E
102
}
330
283E
100
AcDbXrecord
280
     1
102
ACAD_ROUNDTRIP_PRE2007_TABLESTYLE
 90
      512
 91
        0
  1

 92
      512
 93
        0
  2

 94
      512
 95
        0
  3

  0
XRECORD
  5
28B1
102
{ACAD_REACTORS
330
28B0
102
}
330
28B0
100
AcDbXrecord
280
     1
102
RTVSPropertyOp0
 70
     1
102
RTVSPropertyOp1
 70
     1
102
RTVSPropertyOp2
 70
     1
102
RTVSPropertyOp3
 70
     1
102
RTVSPropertyOp4
 70
     1
102
RTVSPropertyOp5
 70
     1
102
RTVSPropertyOp6
 70
     1
102
RTVSPropertyOp7
 70
     1
102
RTVSPropertyOp8
 70
     1
102
RTVSPropertyOp9
 70
     1
102
RTVSPropertyOp10
 70
     1
102
RTVSPropertyOp11
 70
     1
102
RTVSPropertyOp12
 70
     1
102
RTVSPropertyOp13
 70
     1
102
RTVSPropertyOp14
 70
     1
102
RTVSPropertyOp15
 70
     1
102
RTVSPropertyOp16
 70
     1
102
RTVSPropertyOp17
 70
     1
102
RTVSPropertyOp18
 70
     1
102
RTVSPropertyOp19
 70
     1
102
RTVSPropertyOp20
 70
     1
102
RTVSPropertyOp21
 70
     1
102
RTVSPropertyOp22
 70
     1
102
RTVSPropertyOp23
 70
     1
102
RTVSPropertyOp24
 70
     1
102
RTVSPropertyOp25
 70
     1
102
RTVSPropertyOp26
 70
     1
102
RTVSPropertyOp27
 70
     1
102
RTVSPropertyOp28
 70
     1
102
RTVSPropertyOp29
 70
     1
102
RTVSPropertyOp30
 70
     1
102
RTVSPropertyOp31
 70
     1
102
RTVSPropertyOp32
 70
     1
  0
XRECORD
  5
28B5
102
{ACAD_REACTORS
330
28B4
102
}
330
28B4
100
AcDbXrecord
280
     1
102
RTVSPropertyOp0
 70
     1
102
RTVSPropertyOp1
 70
     1
102
RTVSPropertyOp2
 70
     1
102
RTVSPropertyOp3
 70
     1
102
RTVSPropertyOp4
 70
     1
102
RTVSPropertyOp5
 70
     1
102
RTVSPropertyOp6
 70
     1
102
RTVSPropertyOp7
 70
     1
102
RTVSPropertyOp8
 70
     1
102
RTVSPropertyOp9
 70
     1
102
RTVSPropertyOp10
 70
     1
102
RTVSPropertyOp11
 70
     1
102
RTVSPropertyOp12
 70
     1
102
RTVSPropertyOp13
 70
     1
102
RTVSPropertyOp14
 70
     1
102
RTVSPropertyOp15
 70
     1
102
RTVSPropertyOp16
 70
     1
102
RTVSPropertyOp17
 70
     1
102
RTVSPropertyOp18
 70
     1
102
RTVSPropertyOp19
 70
     1
102
RTVSPropertyOp20
 70
     1
102
RTVSPropertyOp21
 70
     1
102
RTVSPropertyOp22
 70
     1
102
RTVSPropertyOp23
 70
     1
102
RTVSPropertyOp24
 70
     1
102
RTVSPropertyOp25
 70
     1
102
RTVSPropertyOp26
 70
     1
102
RTVSPropertyOp27
 70
     1
102
RTVSPropertyOp28
 70
     1
102
RTVSPropertyOp29
 70
     1
102
RTVSPropertyOp30
 70
     1
102
RTVSPropertyOp31
 70
     1
102
RTVSPropertyOp32
 70
     1
  0
XRECORD
  5
28B3
102
{ACAD_REACTORS
330
28B2
102
}
330
28B2
100
AcDbXrecord
280
     1
102
RTVSPropertyOp0
 70
     1
102
RTVSPropertyOp1
 70
     1
102
RTVSPropertyOp2
 70
     1
102
RTVSPropertyOp3
 70
     1
102
RTVSPropertyOp4
 70
     1
102
RTVSPropertyOp5
 70
     1
102
RTVSPropertyOp6
 70
     1
102
RTVSPropertyOp7
 70
     1
102
RTVSPropertyOp8
 70
     1
102
RTVSPropertyOp9
 70
     1
102
RTVSPropertyOp10
 70
     1
102
RTVSPropertyOp11
 70
     1
102
RTVSPropertyOp12
 70
     1
102
RTVSPropertyOp13
 70
     1
102
RTVSPropertyOp14
 70
     1
102
RTVSPropertyOp15
 70
     1
102
RTVSPropertyOp16
 70
     1
102
RTVSPropertyOp17
 70
     1
102
RTVSPropertyOp18
 70
     1
102
RTVSPropertyOp19
 70
     1
102
RTVSPropertyOp20
 70
     1
102
RTVSPropertyOp21
 70
     1
102
RTVSPropertyOp22
 70
     1
102
RTVSPropertyOp23
 70
     1
102
RTVSPropertyOp24
 70
     1
102
RTVSPropertyOp25
 70
     1
102
RTVSPropertyOp26
 70
     1
102
RTVSPropertyOp27
 70
     1
102
RTVSPropertyOp28
 70
     1
102
RTVSPropertyOp29
 70
     1
102
RTVSPropertyOp30
 70
     1
102
RTVSPropertyOp31
 70
     1
102
RTVSPropertyOp32
 70
     1
  0
XRECORD
  5
28AF
102
{ACAD_REACTORS
330
28AE
102
}
330
28AE
100
AcDbXrecord
280
     1
102
RTVSPropertyOp0
 70
     1
102
RTVSPropertyOp1
 70
     1
102
RTVSPropertyOp2
 70
     1
102
RTVSPropertyOp3
 70
     1
102
RTVSPropertyOp4
 70
     1
102
RTVSPropertyOp5
 70
     1
102
RTVSPropertyOp6
 70
     1
102
RTVSPropertyOp7
 70
     1
102
RTVSPropertyOp8
 70
     1
102
RTVSPropertyOp9
 70
     1
102
RTVSPropertyOp10
 70
     1
102
RTVSPropertyOp11
 70
     1
102
RTVSPropertyOp12
 70
     1
102
RTVSPropertyOp13
 70
     1
102
RTVSPropertyOp14
 70
     1
102
RTVSPropertyOp15
 70
     1
102
RTVSPropertyOp16
 70
     1
102
RTVSPropertyOp17
 70
     1
102
RTVSPropertyOp18
 70
     1
102
RTVSPropertyOp19
 70
     1
102
RTVSPropertyOp20
 70
     1
102
RTVSPropertyOp21
 70
     1
102
RTVSPropertyOp22
 70
     1
102
RTVSPropertyOp23
 70
     1
102
RTVSPropertyOp24
 70
     1
102
RTVSPropertyOp25
 70
     1
102
RTVSPropertyOp26
 70
     1
102
RTVSPropertyOp27
 70
     1
102
RTVSPropertyOp28
 70
     1
102
RTVSPropertyOp29
 70
     1
102
RTVSPropertyOp30
 70
     1
102
RTVSPropertyOp31
 70
     1
102
RTVSPropertyOp32
 70
     1
  0
XRECORD
  5
28BD
102
{ACAD_REACTORS
330
28BC
102
}
330
28BC
100
AcDbXrecord
280
     1
102
RTVSPropertyOp0
 70
     1
102
RTVSPropertyOp1
 70
     1
102
RTVSPropertyOp2
 70
     1
102
RTVSPropertyOp3
 70
     1
102
RTVSPropertyOp4
 70
     1
102
RTVSPropertyOp5
 70
     1
102
RTVSPropertyOp6
 70
     1
102
RTVSPropertyOp7
 70
     1
102
RTVSPropertyOp8
 70
     1
102
RTVSPropertyOp9
 70
     1
102
RTVSPropertyOp10
 70
     1
102
RTVSPropertyOp11
 70
     1
102
RTVSPropertyOp12
 70
     1
102
RTVSPropertyOp13
 70
     1
102
RTVSPropertyOp14
 70
     1
102
RTVSPropertyOp15
 70
     1
102
RTVSPropertyOp16
 70
     1
102
RTVSPropertyOp17
 70
     1
102
RTVSPropertyOp18
 70
     1
102
RTVSPropertyOp19
 70
     1
102
RTVSPropertyOp20
 70
     1
102
RTVSPropertyOp21
 70
     1
102
RTVSPropertyOp22
 70
     1
102
RTVSPropertyOp23
 70
     1
102
RTVSPropertyOp24
 70
     1
102
RTVSPropertyOp25
 70
     1
102
RTVSPropertyOp26
 70
     1
102
RTVSPropertyOp27
 70
     1
102
RTVSPropertyOp28
 70
     1
102
RTVSPropertyOp29
 70
     1
102
RTVSPropertyOp30
 70
     1
102
RTVSPropertyOp31
 70
     1
102
RTVSPropertyOp32
 70
     1
  0
XRECORD
  5
28C5
102
{ACAD_REACTORS
330
28C4
102
}
330
28C4
100
AcDbXrecord
280
     1
102
RTVSPropertyOp0
 70
     1
102
RTVSPropertyOp1
 70
     1
102
RTVSPropertyOp2
 70
     1
102
RTVSPropertyOp3
 70
     1
102
RTVSPropertyOp4
 70
     1
102
RTVSPropertyOp5
 70
     1
102
RTVSPropertyOp6
 70
     1
102
RTVSPropertyOp7
 70
     1
102
RTVSPropertyOp8
 70
     1
102
RTVSPropertyOp9
 70
     1
102
RTVSPropertyOp10
 70
     1
102
RTVSPropertyOp11
 70
     1
102
RTVSPropertyOp12
 70
     1
102
RTVSPropertyOp13
 70
     1
102
RTVSPropertyOp14
 70
     1
102
RTVSPropertyOp15
 70
     1
102
RTVSPropertyOp16
 70
     1
102
RTVSPropertyOp17
 70
     1
102
RTVSPropertyOp18
 70
     1
102
RTVSPropertyOp19
 70
     1
102
RTVSPropertyOp20
 70
     1
102
RTVSPropertyOp21
 70
     1
102
RTVSPropertyOp22
 70
     1
102
RTVSPropertyOp23
 70
     1
102
RTVSPropertyOp24
 70
     1
102
RTVSPropertyOp25
 70
     1
102
RTVSPropertyOp26
 70
     1
102
RTVSPropertyOp27
 70
     1
102
RTVSPropertyOp28
 70
     1
102
RTVSPropertyOp29
 70
     1
102
RTVSPropertyOp30
 70
     1
102
RTVSPropertyOp31
 70
     1
102
RTVSPropertyOp32
 70
     1
  0
XRECORD
  5
28B7
102
{ACAD_REACTORS
330
28B6
102
}
330
28B6
100
AcDbXrecord
280
     1
102
RTVSPropertyOp0
 70
     1
102
RTVSPropertyOp1
 70
     1
102
RTVSPropertyOp2
 70
     1
102
RTVSPropertyOp3
 70
     1
102
RTVSPropertyOp4
 70
     1
102
RTVSPropertyOp5
 70
     1
102
RTVSPropertyOp6
 70
     1
102
RTVSPropertyOp7
 70
     1
102
RTVSPropertyOp8
 70
     1
102
RTVSPropertyOp9
 70
     1
102
RTVSPropertyOp10
 70
     1
102
RTVSPropertyOp11
 70
     1
102
RTVSPropertyOp12
 70
     1
102
RTVSPropertyOp13
 70
     1
102
RTVSPropertyOp14
 70
     1
102
RTVSPropertyOp15
 70
     1
102
RTVSPropertyOp16
 70
     1
102
RTVSPropertyOp17
 70
     1
102
RTVSPropertyOp18
 70
     1
102
RTVSPropertyOp19
 70
     1
102
RTVSPropertyOp20
 70
     1
102
RTVSPropertyOp21
 70
     1
102
RTVSPropertyOp22
 70
     1
102
RTVSPropertyOp23
 70
     1
102
RTVSPropertyOp24
 70
     1
102
RTVSPropertyOp25
 70
     1
102
RTVSPropertyOp26
 70
     1
102
RTVSPropertyOp27
 70
     1
102
RTVSPropertyOp28
 70
     1
102
RTVSPropertyOp29
 70
     1
102
RTVSPropertyOp30
 70
     1
102
RTVSPropertyOp31
 70
     1
102
RTVSPropertyOp32
 70
     1
  0
XRECORD
  5
28BB
102
{ACAD_REACTORS
330
28BA
102
}
330
28BA
100
AcDbXrecord
280
     1
102
RTVSPropertyOp0
 70
     1
102
RTVSPropertyOp1
 70
     1
102
RTVSPropertyOp2
 70
     1
102
RTVSPropertyOp3
 70
     1
102
RTVSPropertyOp4
 70
     1
102
RTVSPropertyOp5
 70
     1
102
RTVSPropertyOp6
 70
     1
102
RTVSPropertyOp7
 70
     1
102
RTVSPropertyOp8
 70
     1
102
RTVSPropertyOp9
 70
     1
102
RTVSPropertyOp10
 70
     1
102
RTVSPropertyOp11
 70
     1
102
RTVSPropertyOp12
 70
     1
102
RTVSPropertyOp13
 70
     1
102
RTVSPropertyOp14
 70
     1
102
RTVSPropertyOp15
 70
     1
102
RTVSPropertyOp16
 70
     1
102
RTVSPropertyOp17
 70
     1
102
RTVSPropertyOp18
 70
     1
102
RTVSPropertyOp19
 70
     1
102
RTVSPropertyOp20
 70
     1
102
RTVSPropertyOp21
 70
     1
102
RTVSPropertyOp22
 70
     1
102
RTVSPropertyOp23
 70
     1
102
RTVSPropertyOp24
 70
     1
102
RTVSPropertyOp25
 70
     1
102
RTVSPropertyOp26
 70
     1
102
RTVSPropertyOp27
 70
     1
102
RTVSPropertyOp28
 70
     1
102
RTVSPropertyOp29
 70
     1
102
RTVSPropertyOp30
 70
     1
102
RTVSPropertyOp31
 70
     1
102
RTVSPropertyOp32
 70
     1
  0
XRECORD
  5
28E2
102
{ACAD_REACTORS
330
28E1
102
}
330
28E1
100
AcDbXrecord
280
     1
102
RTVSPropertyOp0
 70
     0
102
RTVSPropertyOp1
 70
     0
102
RTVSPropertyOp2
 70
     0
102
RTVSPropertyOp3
 70
     0
102
RTVSPropertyOp4
 70
     0
102
RTVSPropertyOp5
 70
     0
102
RTVSPropertyOp6
 70
     0
102
RTVSPropertyOp7
 70
     0
102
RTVSPropertyOp8
 70
     0
102
RTVSPropertyOp9
 70
     0
102
RTVSPropertyOp10
 70
     0
102
RTVSPropertyOp11
 70
     0
102
RTVSPropertyOp12
 70
     0
102
RTVSPropertyOp13
 70
     0
102
RTVSPropertyOp14
 70
     2
102
RTVSPropertyOp15
 70
     0
102
RTVSPropertyOp16
 70
     0
102
RTVSPropertyOp17
 70
     0
102
RTVSPropertyOp18
 70
     0
102
RTVSPropertyOp19
 70
     0
102
RTVSPropertyOp20
 70
     0
102
RTVSPropertyOp21
 70
     0
102
RTVSPropertyOp22
 70
     0
102
RTVSPropertyOp23
 70
     0
102
RTVSPropertyOp24
 70
     0
102
RTVSPropertyOp25
 70
     0
102
RTVSPropertyOp26
 70
     0
102
RTVSPropertyOp27
 70
     0
102
RTVSPropertyOp28
 70
     0
102
RTVSPropertyOp29
 70
     0
102
RTVSPropertyOp30
 70
     0
102
RTVSPropertyOp31
 70
     0
102
RTVSPropertyOp32
 70
     0
  0
XRECORD
  5
28C3
102
{ACAD_REACTORS
330
28C2
102
}
330
28C2
100
AcDbXrecord
280
     1
102
RTVSPropertyOp0
 70
     1
102
RTVSPropertyOp1
 70
     1
102
RTVSPropertyOp2
 70
     1
102
RTVSPropertyOp3
 70
     1
102
RTVSPropertyOp4
 70
     1
102
RTVSPropertyOp5
 70
     1
102
RTVSPropertyOp6
 70
     1
102
RTVSPropertyOp7
 70
     1
102
RTVSPropertyOp8
 70
     1
102
RTVSPropertyOp9
 70
     1
102
RTVSPropertyOp10
 70
     1
102
RTVSPropertyOp11
 70
     1
102
RTVSPropertyOp12
 70
     1
102
RTVSPropertyOp13
 70
     1
102
RTVSPropertyOp14
 70
     1
102
RTVSPropertyOp15
 70
     1
102
RTVSPropertyOp16
 70
     1
102
RTVSPropertyOp17
 70
     1
102
RTVSPropertyOp18
 70
     1
102
RTVSPropertyOp19
 70
     1
102
RTVSPropertyOp20
 70
     1
102
RTVSPropertyOp21
 70
     1
102
RTVSPropertyOp22
 70
     1
102
RTVSPropertyOp23
 70
     1
102
RTVSPropertyOp24
 70
     1
102
RTVSPropertyOp25
 70
     1
102
RTVSPropertyOp26
 70
     1
102
RTVSPropertyOp27
 70
     1
102
RTVSPropertyOp28
 70
     1
102
RTVSPropertyOp29
 70
     1
102
RTVSPropertyOp30
 70
     1
102
RTVSPropertyOp31
 70
     1
102
RTVSPropertyOp32
 70
     1
  0
XRECORD
  5
28A7
102
{ACAD_REACTORS
330
28A6
102
}
330
28A6
100
AcDbXrecord
280
     1
102
RTVSPropertyOp0
 70
     1
102
RTVSPropertyOp1
 70
     1
102
RTVSPropertyOp2
 70
     1
102
RTVSPropertyOp3
 70
     1
102
RTVSPropertyOp4
 70
     1
102
RTVSPropertyOp5
 70
     1
102
RTVSPropertyOp6
 70
     1
102
RTVSPropertyOp7
 70
     1
102
RTVSPropertyOp8
 70
     1
102
RTVSPropertyOp9
 70
     1
102
RTVSPropertyOp10
 70
     1
102
RTVSPropertyOp11
 70
     1
102
RTVSPropertyOp12
 70
     1
102
RTVSPropertyOp13
 70
     1
102
RTVSPropertyOp14
 70
     1
102
RTVSPropertyOp15
 70
     1
102
RTVSPropertyOp16
 70
     1
102
RTVSPropertyOp17
 70
     1
102
RTVSPropertyOp18
 70
     1
102
RTVSPropertyOp19
 70
     1
102
RTVSPropertyOp20
 70
     1
102
RTVSPropertyOp21
 70
     1
102
RTVSPropertyOp22
 70
     1
102
RTVSPropertyOp23
 70
     1
102
RTVSPropertyOp24
 70
     1
102
RTVSPropertyOp25
 70
     1
102
RTVSPropertyOp26
 70
     1
102
RTVSPropertyOp27
 70
     1
102
RTVSPropertyOp28
 70
     1
102
RTVSPropertyOp29
 70
     1
102
RTVSPropertyOp30
 70
     1
102
RTVSPropertyOp31
 70
     1
102
RTVSPropertyOp32
 70
     1
  0
XRECORD
  5
28A9
102
{ACAD_REACTORS
330
28A8
102
}
330
28A8
100
AcDbXrecord
280
     1
102
RTVSPropertyOp0
 70
     1
102
RTVSPropertyOp1
 70
     1
102
RTVSPropertyOp2
 70
     1
102
RTVSPropertyOp3
 70
     1
102
RTVSPropertyOp4
 70
     1
102
RTVSPropertyOp5
 70
     1
102
RTVSPropertyOp6
 70
     1
102
RTVSPropertyOp7
 70
     1
102
RTVSPropertyOp8
 70
     1
102
RTVSPropertyOp9
 70
     1
102
RTVSPropertyOp10
 70
     1
102
RTVSPropertyOp11
 70
     1
102
RTVSPropertyOp12
 70
     1
102
RTVSPropertyOp13
 70
     1
102
RTVSPropertyOp14
 70
     1
102
RTVSPropertyOp15
 70
     1
102
RTVSPropertyOp16
 70
     1
102
RTVSPropertyOp17
 70
     1
102
RTVSPropertyOp18
 70
     1
102
RTVSPropertyOp19
 70
     1
102
RTVSPropertyOp20
 70
     1
102
RTVSPropertyOp21
 70
     1
102
RTVSPropertyOp22
 70
     1
102
RTVSPropertyOp23
 70
     1
102
RTVSPropertyOp24
 70
     1
102
RTVSPropertyOp25
 70
     1
102
RTVSPropertyOp26
 70
     1
102
RTVSPropertyOp27
 70
     1
102
RTVSPropertyOp28
 70
     1
102
RTVSPropertyOp29
 70
     1
102
RTVSPropertyOp30
 70
     1
102
RTVSPropertyOp31
 70
     1
102
RTVSPropertyOp32
 70
     1
  0
XRECORD
  5
28AB
102
{ACAD_REACTORS
330
28AA
102
}
330
28AA
100
AcDbXrecord
280
     1
102
RTVSPropertyOp0
 70
     1
102
RTVSPropertyOp1
 70
     1
102
RTVSPropertyOp2
 70
     1
102
RTVSPropertyOp3
 70
     1
102
RTVSPropertyOp4
 70
     1
102
RTVSPropertyOp5
 70
     1
102
RTVSPropertyOp6
 70
     1
102
RTVSPropertyOp7
 70
     1
102
RTVSPropertyOp8
 70
     1
102
RTVSPropertyOp9
 70
     1
102
RTVSPropertyOp10
 70
     1
102
RTVSPropertyOp11
 70
     1
102
RTVSPropertyOp12
 70
     1
102
RTVSPropertyOp13
 70
     1
102
RTVSPropertyOp14
 70
     1
102
RTVSPropertyOp15
 70
     1
102
RTVSPropertyOp16
 70
     1
102
RTVSPropertyOp17
 70
     1
102
RTVSPropertyOp18
 70
     1
102
RTVSPropertyOp19
 70
     1
102
RTVSPropertyOp20
 70
     1
102
RTVSPropertyOp21
 70
     1
102
RTVSPropertyOp22
 70
     1
102
RTVSPropertyOp23
 70
     1
102
RTVSPropertyOp24
 70
     1
102
RTVSPropertyOp25
 70
     1
102
RTVSPropertyOp26
 70
     1
102
RTVSPropertyOp27
 70
     1
102
RTVSPropertyOp28
 70
     1
102
RTVSPropertyOp29
 70
     1
102
RTVSPropertyOp30
 70
     1
102
RTVSPropertyOp31
 70
     1
102
RTVSPropertyOp32
 70
     1
  0
XRECORD
  5
28AD
102
{ACAD_REACTORS
330
28AC
102
}
330
28AC
100
AcDbXrecord
280
     1
102
RTVSPropertyOp0
 70
     1
102
RTVSPropertyOp1
 70
     1
102
RTVSPropertyOp2
 70
     1
102
RTVSPropertyOp3
 70
     1
102
RTVSPropertyOp4
 70
     1
102
RTVSPropertyOp5
 70
     1
102
RTVSPropertyOp6
 70
     1
102
RTVSPropertyOp7
 70
     1
102
RTVSPropertyOp8
 70
     1
102
RTVSPropertyOp9
 70
     1
102
RTVSPropertyOp10
 70
     1
102
RTVSPropertyOp11
 70
     1
102
RTVSPropertyOp12
 70
     1
102
RTVSPropertyOp13
 70
     1
102
RTVSPropertyOp14
 70
     1
102
RTVSPropertyOp15
 70
     1
102
RTVSPropertyOp16
 70
     1
102
RTVSPropertyOp17
 70
     1
102
RTVSPropertyOp18
 70
     1
102
RTVSPropertyOp19
 70
     1
102
RTVSPropertyOp20
 70
     1
102
RTVSPropertyOp21
 70
     1
102
RTVSPropertyOp22
 70
     1
102
RTVSPropertyOp23
 70
     1
102
RTVSPropertyOp24
 70
     1
102
RTVSPropertyOp25
 70
     1
102
RTVSPropertyOp26
 70
     1
102
RTVSPropertyOp27
 70
     1
102
RTVSPropertyOp28
 70
     1
102
RTVSPropertyOp29
 70
     1
102
RTVSPropertyOp30
 70
     1
102
RTVSPropertyOp31
 70
     1
102
RTVSPropertyOp32
 70
     1
  0
XRECORD
  5
28D2
102
{ACAD_REACTORS
330
28D1
102
}
330
28D1
100
AcDbXrecord
280
     1
102
RTVSPropertyOp0
 70
     1
102
RTVSPropertyOp1
 70
     1
102
RTVSPropertyOp2
 70
     1
102
RTVSPropertyOp3
 70
     1
102
RTVSPropertyOp4
 70
     1
102
RTVSPropertyOp5
 70
     1
102
RTVSPropertyOp6
 70
     1
102
RTVSPropertyOp7
 70
     1
102
RTVSPropertyOp8
 70
     1
102
RTVSPropertyOp9
 70
     1
102
RTVSPropertyOp10
 70
     1
102
RTVSPropertyOp11
 70
     1
102
RTVSPropertyOp12
 70
     1
102
RTVSPropertyOp13
 70
     1
102
RTVSPropertyOp14
 70
     1
102
RTVSPropertyOp15
 70
     1
102
RTVSPropertyOp16
 70
     1
102
RTVSPropertyOp17
 70
     1
102
RTVSPropertyOp18
 70
     1
102
RTVSPropertyOp19
 70
     1
102
RTVSPropertyOp20
 70
     1
102
RTVSPropertyOp21
 70
     1
102
RTVSPropertyOp22
 70
     1
102
RTVSPropertyOp23
 70
     1
102
RTVSPropertyOp24
 70
     1
102
RTVSPropertyOp25
 70
     1
102
RTVSPropertyOp26
 70
     1
102
RTVSPropertyOp27
 70
     1
102
RTVSPropertyOp28
 70
     1
102
RTVSPropertyOp29
 70
     1
102
RTVSPropertyOp30
 70
     1
102
RTVSPropertyOp31
 70
     1
102
RTVSPropertyOp32
 70
     1
  0
XRECORD
  5
28DE
102
{ACAD_REACTORS
330
28DD
102
}
330
28DD
100
AcDbXrecord
280
     1
102
RTVSPropertyOp0
 70
     0
102
RTVSPropertyOp1
 70
     0
102
RTVSPropertyOp2
 70
     0
102
RTVSPropertyOp3
 70
     0
102
RTVSPropertyOp4
 70
     0
102
RTVSPropertyOp5
 70
     0
102
RTVSPropertyOp6
 70
     0
102
RTVSPropertyOp7
 70
     0
102
RTVSPropertyOp8
 70
     0
102
RTVSPropertyOp9
 70
     0
102
RTVSPropertyOp10
 70
     0
102
RTVSPropertyOp11
 70
     0
102
RTVSPropertyOp12
 70
     0
102
RTVSPropertyOp13
 70
     0
102
RTVSPropertyOp14
 70
     2
102
RTVSPropertyOp15
 70
     0
102
RTVSPropertyOp16
 70
     0
102
RTVSPropertyOp17
 70
     0
102
RTVSPropertyOp18
 70
     0
102
RTVSPropertyOp19
 70
     0
102
RTVSPropertyOp20
 70
     0
102
RTVSPropertyOp21
 70
     0
102
RTVSPropertyOp22
 70
     0
102
RTVSPropertyOp23
 70
     0
102
RTVSPropertyOp24
 70
     0
102
RTVSPropertyOp25
 70
     0
102
RTVSPropertyOp26
 70
     0
102
RTVSPropertyOp27
 70
     0
102
RTVSPropertyOp28
 70
     0
102
RTVSPropertyOp29
 70
     0
102
RTVSPropertyOp30
 70
     0
102
RTVSPropertyOp31
 70
     0
102
RTVSPropertyOp32
 70
     0
  0
XRECORD
  5
28C1
102
{ACAD_REACTORS
330
28C0
102
}
330
28C0
100
AcDbXrecord
280
     1
102
RTVSPropertyOp0
 70
     1
102
RTVSPropertyOp1
 70
     1
102
RTVSPropertyOp2
 70
     1
102
RTVSPropertyOp3
 70
     1
102
RTVSPropertyOp4
 70
     1
102
RTVSPropertyOp5
 70
     1
102
RTVSPropertyOp6
 70
     1
102
RTVSPropertyOp7
 70
     1
102
RTVSPropertyOp8
 70
     1
102
RTVSPropertyOp9
 70
     1
102
RTVSPropertyOp10
 70
     1
102
RTVSPropertyOp11
 70
     1
102
RTVSPropertyOp12
 70
     1
102
RTVSPropertyOp13
 70
     1
102
RTVSPropertyOp14
 70
     1
102
RTVSPropertyOp15
 70
     1
102
RTVSPropertyOp16
 70
     1
102
RTVSPropertyOp17
 70
     1
102
RTVSPropertyOp18
 70
     1
102
RTVSPropertyOp19
 70
     1
102
RTVSPropertyOp20
 70
     1
102
RTVSPropertyOp21
 70
     1
102
RTVSPropertyOp22
 70
     1
102
RTVSPropertyOp23
 70
     1
102
RTVSPropertyOp24
 70
     1
102
RTVSPropertyOp25
 70
     1
102
RTVSPropertyOp26
 70
     1
102
RTVSPropertyOp27
 70
     1
102
RTVSPropertyOp28
 70
     1
102
RTVSPropertyOp29
 70
     1
102
RTVSPropertyOp30
 70
     1
102
RTVSPropertyOp31
 70
     1
102
RTVSPropertyOp32
 70
     1
  0
XRECORD
  5
28E0
102
{ACAD_REACTORS
330
28DF
102
}
330
28DF
100
AcDbXrecord
280
     1
102
RTVSPropertyOp0
 70
     0
102
RTVSPropertyOp1
 70
     0
102
RTVSPropertyOp2
 70
     0
102
RTVSPropertyOp3
 70
     0
102
RTVSPropertyOp4
 70
     0
102
RTVSPropertyOp5
 70
     0
102
RTVSPropertyOp6
 70
     0
102
RTVSPropertyOp7
 70
     0
102
RTVSPropertyOp8
 70
     0
102
RTVSPropertyOp9
 70
     0
102
RTVSPropertyOp10
 70
     0
102
RTVSPropertyOp11
 70
     0
102
RTVSPropertyOp12
 70
     0
102
RTVSPropertyOp13
 70
     0
102
RTVSPropertyOp14
 70
     2
102
RTVSPropertyOp15
 70
     0
102
RTVSPropertyOp16
 70
     0
102
RTVSPropertyOp17
 70
     0
102
RTVSPropertyOp18
 70
     0
102
RTVSPropertyOp19
 70
     0
102
RTVSPropertyOp20
 70
     0
102
RTVSPropertyOp21
 70
     0
102
RTVSPropertyOp22
 70
     0
102
RTVSPropertyOp23
 70
     0
102
RTVSPropertyOp24
 70
     0
102
RTVSPropertyOp25
 70
     0
102
RTVSPropertyOp26
 70
     0
102
RTVSPropertyOp27
 70
     0
102
RTVSPropertyOp28
 70
     0
102
RTVSPropertyOp29
 70
     0
102
RTVSPropertyOp30
 70
     0
102
RTVSPropertyOp31
 70
     0
102
RTVSPropertyOp32
 70
     0
  0
XRECORD
  5
28B9
102
{ACAD_REACTORS
330
28B8
102
}
330
28B8
100
AcDbXrecord
280
     1
102
RTVSPropertyOp0
 70
     1
102
RTVSPropertyOp1
 70
     1
102
RTVSPropertyOp2
 70
     1
102
RTVSPropertyOp3
 70
     1
102
RTVSPropertyOp4
 70
     1
102
RTVSPropertyOp5
 70
     1
102
RTVSPropertyOp6
 70
     1
102
RTVSPropertyOp7
 70
     1
102
RTVSPropertyOp8
 70
     1
102
RTVSPropertyOp9
 70
     1
102
RTVSPropertyOp10
 70
     1
102
RTVSPropertyOp11
 70
     1
102
RTVSPropertyOp12
 70
     1
102
RTVSPropertyOp13
 70
     1
102
RTVSPropertyOp14
 70
     1
102
RTVSPropertyOp15
 70
     1
102
RTVSPropertyOp16
 70
     1
102
RTVSPropertyOp17
 70
     1
102
RTVSPropertyOp18
 70
     1
102
RTVSPropertyOp19
 70
     1
102
RTVSPropertyOp20
 70
     1
102
RTVSPropertyOp21
 70
     1
102
RTVSPropertyOp22
 70
     1
102
RTVSPropertyOp23
 70
     1
102
RTVSPropertyOp24
 70
     1
102
RTVSPropertyOp25
 70
     1
102
RTVSPropertyOp26
 70
     1
102
RTVSPropertyOp27
 70
     1
102
RTVSPropertyOp28
 70
     1
102
RTVSPropertyOp29
 70
     1
102
RTVSPropertyOp30
 70
     1
102
RTVSPropertyOp31
 70
     1
102
RTVSPropertyOp32
 70
     1
  0
XRECORD
  5
28DC
102
{ACAD_REACTORS
330
28DB
102
}
330
28DB
100
AcDbXrecord
280
     1
102
RTVSPropertyOp0
 70
     1
102
RTVSPropertyOp1
 70
     1
102
RTVSPropertyOp2
 70
     1
102
RTVSPropertyOp3
 70
     1
102
RTVSPropertyOp4
 70
     1
102
RTVSPropertyOp5
 70
     1
102
RTVSPropertyOp6
 70
     1
102
RTVSPropertyOp7
 70
     1
102
RTVSPropertyOp8
 70
     1
102
RTVSPropertyOp9
 70
     1
102
RTVSPropertyOp10
 70
     1
102
RTVSPropertyOp11
 70
     1
102
RTVSPropertyOp12
 70
     1
102
RTVSPropertyOp13
 70
     1
102
RTVSPropertyOp14
 70
     1
102
RTVSPropertyOp15
 70
     1
102
RTVSPropertyOp16
 70
     1
102
RTVSPropertyOp17
 70
     1
102
RTVSPropertyOp18
 70
     1
102
RTVSPropertyOp19
 70
     1
102
RTVSPropertyOp20
 70
     1
102
RTVSPropertyOp21
 70
     1
102
RTVSPropertyOp22
 70
     1
102
RTVSPropertyOp23
 70
     1
102
RTVSPropertyOp24
 70
     1
102
RTVSPropertyOp25
 70
     1
102
RTVSPropertyOp26
 70
     1
102
RTVSPropertyOp27
 70
     1
102
RTVSPropertyOp28
 70
     1
102
RTVSPropertyOp29
 70
     1
102
RTVSPropertyOp30
 70
     1
102
RTVSPropertyOp31
 70
     1
102
RTVSPropertyOp32
 70
     1
  0
XRECORD
  5
28DA
102
{ACAD_REACTORS
330
28D9
102
}
330
28D9
100
AcDbXrecord
280
     1
102
RTVSPropertyOp0
 70
     1
102
RTVSPropertyOp1
 70
     1
102
RTVSPropertyOp2
 70
     1
102
RTVSPropertyOp3
 70
     1
102
RTVSPropertyOp4
 70
     1
102
RTVSPropertyOp5
 70
     1
102
RTVSPropertyOp6
 70
     1
102
RTVSPropertyOp7
 70
     1
102
RTVSPropertyOp8
 70
     1
102
RTVSPropertyOp9
 70
     1
102
RTVSPropertyOp10
 70
     1
102
RTVSPropertyOp11
 70
     1
102
RTVSPropertyOp12
 70
     1
102
RTVSPropertyOp13
 70
     1
102
RTVSPropertyOp14
 70
     1
102
RTVSPropertyOp15
 70
     1
102
RTVSPropertyOp16
 70
     1
102
RTVSPropertyOp17
 70
     1
102
RTVSPropertyOp18
 70
     1
102
RTVSPropertyOp19
 70
     1
102
RTVSPropertyOp20
 70
     1
102
RTVSPropertyOp21
 70
     1
102
RTVSPropertyOp22
 70
     1
102
RTVSPropertyOp23
 70
     1
102
RTVSPropertyOp24
 70
     1
102
RTVSPropertyOp25
 70
     1
102
RTVSPropertyOp26
 70
     1
102
RTVSPropertyOp27
 70
     1
102
RTVSPropertyOp28
 70
     1
102
RTVSPropertyOp29
 70
     1
102
RTVSPropertyOp30
 70
     1
102
RTVSPropertyOp31
 70
     1
102
RTVSPropertyOp32
 70
     1
  0
XRECORD
  5
28D4
102
{ACAD_REACTORS
330
28D3
102
}
330
28D3
100
AcDbXrecord
280
     1
102
RTVSPropertyOp0
 70
     1
102
RTVSPropertyOp1
 70
     1
102
RTVSPropertyOp2
 70
     1
102
RTVSPropertyOp3
 70
     1
102
RTVSPropertyOp4
 70
     1
102
RTVSPropertyOp5
 70
     1
102
RTVSPropertyOp6
 70
     1
102
RTVSPropertyOp7
 70
     1
102
RTVSPropertyOp8
 70
     1
102
RTVSPropertyOp9
 70
     1
102
RTVSPropertyOp10
 70
     1
102
RTVSPropertyOp11
 70
     1
102
RTVSPropertyOp12
 70
     1
102
RTVSPropertyOp13
 70
     1
102
RTVSPropertyOp14
 70
     1
102
RTVSPropertyOp15
 70
     1
102
RTVSPropertyOp16
 70
     1
102
RTVSPropertyOp17
 70
     1
102
RTVSPropertyOp18
 70
     1
102
RTVSPropertyOp19
 70
     1
102
RTVSPropertyOp20
 70
     1
102
RTVSPropertyOp21
 70
     1
102
RTVSPropertyOp22
 70
     1
102
RTVSPropertyOp23
 70
     1
102
RTVSPropertyOp24
 70
     1
102
RTVSPropertyOp25
 70
     1
102
RTVSPropertyOp26
 70
     1
102
RTVSPropertyOp27
 70
     1
102
RTVSPropertyOp28
 70
     1
102
RTVSPropertyOp29
 70
     1
102
RTVSPropertyOp30
 70
     1
102
RTVSPropertyOp31
 70
     1
102
RTVSPropertyOp32
 70
     1
  0
XRECORD
  5
28D6
102
{ACAD_REACTORS
330
28D5
102
}
330
28D5
100
AcDbXrecord
280
     1
102
RTVSPropertyOp0
 70
     1
102
RTVSPropertyOp1
 70
     1
102
RTVSPropertyOp2
 70
     1
102
RTVSPropertyOp3
 70
     1
102
RTVSPropertyOp4
 70
     1
102
RTVSPropertyOp5
 70
     1
102
RTVSPropertyOp6
 70
     1
102
RTVSPropertyOp7
 70
     1
102
RTVSPropertyOp8
 70
     1
102
RTVSPropertyOp9
 70
     1
102
RTVSPropertyOp10
 70
     1
102
RTVSPropertyOp11
 70
     1
102
RTVSPropertyOp12
 70
     1
102
RTVSPropertyOp13
 70
     1
102
RTVSPropertyOp14
 70
     1
102
RTVSPropertyOp15
 70
     1
102
RTVSPropertyOp16
 70
     1
102
RTVSPropertyOp17
 70
     1
102
RTVSPropertyOp18
 70
     1
102
RTVSPropertyOp19
 70
     1
102
RTVSPropertyOp20
 70
     1
102
RTVSPropertyOp21
 70
     1
102
RTVSPropertyOp22
 70
     1
102
RTVSPropertyOp23
 70
     1
102
RTVSPropertyOp24
 70
     1
102
RTVSPropertyOp25
 70
     1
102
RTVSPropertyOp26
 70
     1
102
RTVSPropertyOp27
 70
     1
102
RTVSPropertyOp28
 70
     1
102
RTVSPropertyOp29
 70
     1
102
RTVSPropertyOp30
 70
     1
102
RTVSPropertyOp31
 70
     1
102
RTVSPropertyOp32
 70
     1
  0
XRECORD
  5
28BF
102
{ACAD_REACTORS
330
28BE
102
}
330
28BE
100
AcDbXrecord
280
     1
102
RTVSPropertyOp0
 70
     1
102
RTVSPropertyOp1
 70
     1
102
RTVSPropertyOp2
 70
     1
102
RTVSPropertyOp3
 70
     1
102
RTVSPropertyOp4
 70
     1
102
RTVSPropertyOp5
 70
     1
102
RTVSPropertyOp6
 70
     1
102
RTVSPropertyOp7
 70
     1
102
RTVSPropertyOp8
 70
     1
102
RTVSPropertyOp9
 70
     1
102
RTVSPropertyOp10
 70
     1
102
RTVSPropertyOp11
 70
     1
102
RTVSPropertyOp12
 70
     1
102
RTVSPropertyOp13
 70
     1
102
RTVSPropertyOp14
 70
     1
102
RTVSPropertyOp15
 70
     1
102
RTVSPropertyOp16
 70
     1
102
RTVSPropertyOp17
 70
     1
102
RTVSPropertyOp18
 70
     1
102
RTVSPropertyOp19
 70
     1
102
RTVSPropertyOp20
 70
     1
102
RTVSPropertyOp21
 70
     1
102
RTVSPropertyOp22
 70
     1
102
RTVSPropertyOp23
 70
     1
102
RTVSPropertyOp24
 70
     1
102
RTVSPropertyOp25
 70
     1
102
RTVSPropertyOp26
 70
     1
102
RTVSPropertyOp27
 70
     1
102
RTVSPropertyOp28
 70
     1
102
RTVSPropertyOp29
 70
     1
102
RTVSPropertyOp30
 70
     1
102
RTVSPropertyOp31
 70
     1
102
RTVSPropertyOp32
 70
     1
  0
XRECORD
  5
28D0
102
{ACAD_REACTORS
330
28CF
102
}
330
28CF
100
AcDbXrecord
280
     1
102
RTVSPropertyOp0
 70
     1
102
RTVSPropertyOp1
 70
     1
102
RTVSPropertyOp2
 70
     1
102
RTVSPropertyOp3
 70
     1
102
RTVSPropertyOp4
 70
     1
102
RTVSPropertyOp5
 70
     1
102
RTVSPropertyOp6
 70
     1
102
RTVSPropertyOp7
 70
     1
102
RTVSPropertyOp8
 70
     1
102
RTVSPropertyOp9
 70
     1
102
RTVSPropertyOp10
 70
     1
102
RTVSPropertyOp11
 70
     1
102
RTVSPropertyOp12
 70
     1
102
RTVSPropertyOp13
 70
     1
102
RTVSPropertyOp14
 70
     1
102
RTVSPropertyOp15
 70
     1
102
RTVSPropertyOp16
 70
     1
102
RTVSPropertyOp17
 70
     1
102
RTVSPropertyOp18
 70
     1
102
RTVSPropertyOp19
 70
     1
102
RTVSPropertyOp20
 70
     1
102
RTVSPropertyOp21
 70
     1
102
RTVSPropertyOp22
 70
     1
102
RTVSPropertyOp23
 70
     1
102
RTVSPropertyOp24
 70
     1
102
RTVSPropertyOp25
 70
     1
102
RTVSPropertyOp26
 70
     1
102
RTVSPropertyOp27
 70
     1
102
RTVSPropertyOp28
 70
     1
102
RTVSPropertyOp29
 70
     1
102
RTVSPropertyOp30
 70
     1
102
RTVSPropertyOp31
 70
     1
102
RTVSPropertyOp32
 70
     1
  0
XRECORD
  5
28D8
102
{ACAD_REACTORS
330
28D7
102
}
330
28D7
100
AcDbXrecord
280
     1
102
RTVSPropertyOp0
 70
     1
102
RTVSPropertyOp1
 70
     1
102
RTVSPropertyOp2
 70
     1
102
RTVSPropertyOp3
 70
     1
102
RTVSPropertyOp4
 70
     1
102
RTVSPropertyOp5
 70
     1
102
RTVSPropertyOp6
 70
     1
102
RTVSPropertyOp7
 70
     1
102
RTVSPropertyOp8
 70
     1
102
RTVSPropertyOp9
 70
     1
102
RTVSPropertyOp10
 70
     1
102
RTVSPropertyOp11
 70
     1
102
RTVSPropertyOp12
 70
     1
102
RTVSPropertyOp13
 70
     1
102
RTVSPropertyOp14
 70
     1
102
RTVSPropertyOp15
 70
     1
102
RTVSPropertyOp16
 70
     1
102
RTVSPropertyOp17
 70
     1
102
RTVSPropertyOp18
 70
     1
102
RTVSPropertyOp19
 70
     1
102
RTVSPropertyOp20
 70
     1
102
RTVSPropertyOp21
 70
     1
102
RTVSPropertyOp22
 70
     1
102
RTVSPropertyOp23
 70
     1
102
RTVSPropertyOp24
 70
     1
102
RTVSPropertyOp25
 70
     1
102
RTVSPropertyOp26
 70
     1
102
RTVSPropertyOp27
 70
     1
102
RTVSPropertyOp28
 70
     1
102
RTVSPropertyOp29
 70
     1
102
RTVSPropertyOp30
 70
     1
102
RTVSPropertyOp31
 70
     1
102
RTVSPropertyOp32
 70
     1
  0
ENDSEC
  0
EOF
